Advertise here

Speed: Máxima potencia (1994) Full 1080p Latino

697 vistas
1 estrella2 estrellas3 estrellas4 estrellas5 estrellas (2 votos, promedio: 4,50 de 5)
Cargando…

Información de Speed: Máxima potencia (1994) Full 1080p Latino

Datos de la película

  • Calidad: Full 1080p
  • Audio: Español Latino AC3 5.1 BLURAY - Ingles DTS 5.1 BLURAY
  • Subtitulos: Español Latino PGS - Ingles PGS
  • Resolución: 1920X1080
  • Formato: MKV
  • Codec: H.264
  • Encoder: Dpelis
  • Mediainfo: Clic para Mostrar Datos Ver
  • Format                                   : Matroska
    Format version                           : Version 4 / Version 2
    File size                                : 8.86 GiB
    Duration                                 : 1 h 55 min
    Overall bit rate                         : 10.9 Mb/s
    Movie name                               : dpeliculashdmega.org
    Encoded date                             : UTC 2017-11-08 05:11:32 / UTC 2017-11-06T21:36:28Z
    Writing application                      : mkvmerge v15.0.0 ('Duel with the Devil') 64-bit
    Writing library                          : libebml v1.3.5 + libmatroska v1.4.5 / Lavf57.7.2

    Video
    ID                                       : 1
    Format                                   : AVC
    Format/Info                              : Advanced Video Codec
    Format profile                           : [email protected]
    Format settings                          : CABAC / 4 Ref Frames
    Format settings, CABAC                   : Yes
    Format settings, RefFrames               : 4 frames
    Codec ID                                 : V_MPEG4/ISO/AVC
    Duration                                 : 1 h 55 min
    Bit rate                                 : 8 765 kb/s
    Width                                    : 1 920 pixels
    Height                                   : 1 080 pixels
    Display aspect ratio                     : 16:9
    Frame rate mode                          : Constant
    Frame rate                               : 23.976 (24000/1001) FPS
    Color space                              : YUV
    Chroma subsampling                       : 4:2:0
    Bit depth                                : 8 bits
    Scan type                                : Progressive
    Bits/(Pixel*Frame)                       : 0.176
    Stream size                              : 7.10 GiB (80%)
    Title                                    : Speed Máxima potencia (1994) Full 1080p Latino
    Writing library                          : x264 core 148 r2708 86b7198
    Encoding settings                        : cabac=1 / ref=4 / deblock=1:0:0 / analyse=0x3:0x133 / me=esa / subme=10 / psy=1 / psy_rd=1.00:0.00 / mixed_ref=1 / me_range=24 / chroma_me=1 / trellis=2 / 8x8dct=1 / cqm=0 / deadzone=21,11 / fast_pskip=1 / chroma_qp_offset=-2 / threads=34 / lookahead_threads=5 / sliced_threads=0 / nr=0 / decimate=1 / interlaced=0 / bluray_compat=0 / constrained_intra=0 / bframes=8 / b_pyramid=2 / b_adapt=2 / b_bias=0 / direct=3 / weightb=1 / open_gop=0 / weightp=2 / keyint=240 / keyint_min=24 / scenecut=40 / intra_refresh=0 / rc_lookahead=60 / rc=crf / mbtree=1 / crf=20.0 / qcomp=0.60 / qpmin=0 / qpmax=69 / qpstep=4 / vbv_maxrate=62500 / vbv_bufsize=78125 / crf_max=0.0 / nal_hrd=none / filler=0 / ip_ratio=1.40 / aq=1:1.00
    Language                                 : English
    Default                                  : Yes
    Forced                                   : No
    Color range                              : Limited
    Color primaries                          : BT.709
    Transfer characteristics                 : BT.709
    Matrix coefficients                      : BT.709
    Statistics Tags Issue                    : mkvmerge v15.0.0 ('Duel with the Devil') 64-bit 2017-11-08 05:11:32 / mkvmerge v15.0.0 ('Duel with the Devil') 64-bit 2017-11-08 05:11:32 / UTC 2017-11-06T21:36:28Z
    FromStats_BitRate                        : 8963487
    FromStats_Duration                       : 01:55:53.780000000
    FromStats_FrameCount                     : 166724
    FromStats_StreamSize                     : 7791265008

    Audio #1
    ID                                       : 2
    Format                                   : AC-3
    Format/Info                              : Audio Coding 3
    Format settings, Endianness              : Big
    Codec ID                                 : A_AC3
    Duration                                 : 1 h 55 min
    Bit rate mode                            : Constant
    Bit rate                                 : 448 kb/s
    Channel(s)                               : 6 channels
    Channel positions                        : Front: L C R, Side: L R, LFE
    Sampling rate                            : 48.0 kHz
    Frame rate                               : 31.250 FPS (1536 SPF)
    Bit depth                                : 16 bits
    Compression mode                         : Lossy
    Delay relative to video                  : 1 s 0 ms
    Stream size                              : 371 MiB (4%)
    Title                                    : Latino-AC3
    Language                                 : Spanish
    Service kind                             : Complete Main
    Default                                  : Yes
    Forced                                   : No
    Statistics Tags Issue                    : mkvmerge v15.0.0 ('Duel with the Devil') 64-bit 2017-11-08 05:11:32 / mkvmerge v15.0.0 ('Duel with the Devil') 64-bit 2017-11-08 05:11:32 / UTC 2017-11-06T21:36:28Z
    FromStats_BitRate                        : 448000
    FromStats_Duration                       : 01:55:52.832000000
    FromStats_FrameCount                     : 217276
    FromStats_StreamSize                     : 389358592

    Audio #2
    ID                                       : 3
    Format                                   : DTS
    Format/Info                              : Digital Theater Systems
    Mode                                     : 16
    Format settings, Endianness              : Big
    Codec ID                                 : A_DTS
    Duration                                 : 1 h 55 min
    Bit rate mode                            : Constant
    Bit rate                                 : 1 509 kb/s
    Channel(s)                               : 6 channels
    Channel positions                        : Front: L C R, Side: L R, LFE
    Sampling rate                            : 48.0 kHz
    Frame rate                               : 93.750 FPS (512 SPF)
    Bit depth                                : 24 bits
    Compression mode                         : Lossy
    Stream size                              : 1.22 GiB (14%)
    Title                                    : Ingles-DTS
    Language                                 : English
    Default                                  : No
    Forced                                   : No
    Statistics Tags Issue                    : mkvmerge v15.0.0 ('Duel with the Devil') 64-bit 2017-11-08 05:11:32 / mkvmerge v15.0.0 ('Duel with the Devil') 64-bit 2017-11-08 05:11:32 / UTC 2017-11-06T21:36:28Z
    FromStats_BitRate                        : 1508999
    FromStats_Duration                       : 01:55:53.782000000
    FromStats_FrameCount                     : 651917
    FromStats_StreamSize                     : 1311657004

    Text #1
    ID                                       : 4
    Format                                   : PGS
    Muxing mode                              : zlib
    Codec ID                                 : S_HDMV/PGS
    Codec ID/Info                            : Picture based subtitle format used on BDs/HD-DVDs
    Language                                 : Spanish
    Default                                  : No
    Forced                                   : No
    Statistics Tags Issue                    : mkvmerge v15.0.0 ('Duel with the Devil') 64-bit 2017-11-08 05:11:32 / mkvmerge v15.0.0 ('Duel with the Devil') 64-bit 2017-11-08 05:11:32 / UTC 2017-11-06T21:36:28Z
    FromStats_BitRate                        : 25727
    FromStats_Duration                       : 01:54:47.881000000
    FromStats_FrameCount                     : 2304
    FromStats_StreamSize                     : 22150919

    Text #2
    ID                                       : 5
    Format                                   : PGS
    Muxing mode                              : zlib
    Codec ID                                 : S_HDMV/PGS
    Codec ID/Info                            : Picture based subtitle format used on BDs/HD-DVDs
    Language                                 : English
    Default                                  : No
    Forced                                   : No
    Statistics Tags Issue                    : mkvmerge v15.0.0 ('Duel with the Devil') 64-bit 2017-11-08 05:11:32 / mkvmerge v15.0.0 ('Duel with the Devil') 64-bit 2017-11-08 05:11:32 / UTC 2017-11-06T21:36:28Z
    FromStats_BitRate                        : 30141
    FromStats_Duration                       : 01:51:56.876000000
    FromStats_FrameCount                     : 2172
    FromStats_StreamSize                     : 25307345

    Menu
    00:00:00.000                             : :Main Titles
    00:04:19.551                             : :Hole the Elevator
    00:06:04.281                             : :L.a.P.D. Bomb Squad
    00:08:27.090                             : :Down the Shaft
    00:11:17.886                             : :A Gut Feeling
    00:15:23.714                             : :Perilous Rescue
    00:17:38.224                             : :He's Here!
    00:23:21.817                             : :Heroes
    00:26:43.769                             : :The Game Begins
    00:31:01.777                             : :The Bus
    00:35:05.520                             : :High Speed Pursuit with "Tune Man"
    00:40:23.588                             : :Jack on Board
    00:44:32.753                             : :Under the Bus
    00:48:46.507                             : :Through the Streets; a Hard Right
    00:53:09.186                             : :An Empty Freeway
    00:55:44.216                             : :Passenger Transfer
    00:58:51.820                             : :Watch Your Step
    01:02:19.444                             : :Leap of Faith
    01:07:38.388                             : :Circling the Runway
    01:08:54.547                             : :Jack Gets Off
    01:11:51.516                             : :The Plan
    01:15:16.846                             : :Howard Payne
    01:15:40.536                             : :Belly of the Beast
    01:19:33.519                             : :A Costly Mistake
    01:23:27.586                             : :Video Games
    01:27:04.636                             : :Evacuation
    01:32:57.197                             : :The Trap
    01:37:06.029                             : :Going Underground
    01:40:28.231                             : :On the Train
    01:42:19.884                             : :Howard's Headache
    01:46:05.776                             : :Full Speed Ahead
    01:50:06.266                             : :End Credits

  • Peso: 8.86 GiB

Sinopsis

Jack Traven (Reeves) es un intrépido policía de Los Angeles. La supervivencia en esta ciudad para un agente de la ley no es tarea fácil, pero Jack, además de disfrutar de una proverbial buena suerte, conoce perfectamente los trucos para sortear el peligro. Sin embargo, tendrá que afrontar una dura prueba cuando queda atrapado en un autobús urbano que lleva instalada una bomba programada para explotar si el vehículo disminuye su velocidad a menos de 50 millas por hora. Empieza así una loca carrera por la ciudad, con Jack intentando dar confianza a la joven pasajera (Bullock) que ha sustituido al conductor, herido en el “secuestro”.

Ficha técnica

Video trailer de la película

Enlaces de descarga

Descargar Speed: Máxima potencia (1994) Full 1080p Latino
Descargar

dpeliculas

Aportes de DPeliculasHDmega la pass es:dpeliculashdmega.org Aportes de CinemaniaHD la pass es:cinemaniahdd.com

Películas relacionadas

  • Locos por las nueces 2 (2017) 1080p Latino

    2017
    Locos por las nueces 2 (2017) 1080p Latino

    0.0 1h 35m 2017

    Continuación de Operación cacahuete en la que conoceremos las nuevas aventuras de la malhumorada ardilla...

    Director: Callan Brunker

    Género: Animación

    Actores: Will Arnett

  • El vagón de la muerte (2008) UNRATED Full 1080p Latino

    2008
    El vagón de la muerte (2008) UNRATED Full 1080p Latino

    0.0 1 h 42 min 2008

    La dueña de una exitosa galería de arte le propone al fotógrafo Leon Kauffman llevar a cabo un trabajo...

    Director: Ryûhei Kitamura

    Género: Crimen

    Actores: Vinnie Jones

  • Marvel’s The Punisher (2017) WEB-DL 1080p Latino

    2017
    Marvel’s The Punisher (2017) WEB-DL 1080p Latino

    5.0 51 min 2017

    Frank Castle, conocido por las calles de Nueva York como 'el Castigador', busca venganza contra los responsables...

    Director: Steve Lightfoot

    Género: Crimen

    Actores: Paul Schulze

  • Pilgrimage (2017) WEB-DL 1080p Latino

    2017
    Pilgrimage (2017) WEB-DL 1080p Latino

    0.0 1 h 36 min 2017

    “Roma ha hablado”, con esa frase unos monjes cristianos deben comenzar la peregrinación hacia Roma...

    Director: Sophie Higel

    Género: Acción

    Actores: Tristan McConnell

Comentarios 1
  • criss - 08 noviembre, 2017

    muchas gracias buscaba y busca esta peli y no la encontraba. pd: me gustaría si es que pudieran subir la trilogia “Mariachi” de antonio banderas y una llamada “Punto en la mira” del 2008, estas películas estaban en la antigua web y no alcance a bajarlas. Se que no soy vip para hacer pedidos pero comento por si es que toman en cuenta mi comentario. Saludos