Advertise here

Silencio desde el mal (2007) Full 1080p Latino

888 vistas
1 estrella2 estrellas3 estrellas4 estrellas5 estrellas (2 votos, promedio: 5,00 de 5)
Cargando…

Información de Silencio desde el mal (2007) Full 1080p Latino

Datos de la película

  • Calidad: Full 1080p
  • Audio: Español Latino DTS 5.1 BLURAY - Ingles DTS 5.1 BLURAY
  • Subtitulos: Español Latino PGS - Ingles PGS
  • Resolución: 1920X1080
  • Formato: MKV
  • Codec: H.264
  • Encoder: Dpelis
  • Mediainfo: Clic para Mostrar Datos Ver
  • Format                                   : Matroska
    Format version                           : Version 4 / Version 2
    File size                                : 5.81 GiB
    Duration                                 : 1 h 31 min
    Overall bit rate                         : 9 088 kb/s
    Movie name                               : dpeliculashdmega.org
    Encoded date                             : UTC 2017-11-06 06:15:14 / UTC 2017-11-06T00:38:09Z
    Writing application                      : mkvmerge v15.0.0 ('Duel with the Devil') 64-bit
    Writing library                          : libebml v1.3.5 + libmatroska v1.4.5 / Lavf57.7.2

    Video
    ID                                       : 1
    Format                                   : AVC
    Format/Info                              : Advanced Video Codec
    Format profile                           : [email protected]
    Format settings                          : CABAC / 4 Ref Frames
    Format settings, CABAC                   : Yes
    Format settings, RefFrames               : 4 frames
    Codec ID                                 : V_MPEG4/ISO/AVC
    Duration                                 : 1 h 31 min
    Bit rate                                 : 6 630 kb/s
    Width                                    : 1 920 pixels
    Height                                   : 1 080 pixels
    Display aspect ratio                     : 16:9
    Frame rate mode                          : Constant
    Frame rate                               : 23.976 (24000/1001) FPS
    Color space                              : YUV
    Chroma subsampling                       : 4:2:0
    Bit depth                                : 8 bits
    Scan type                                : Progressive
    Bits/(Pixel*Frame)                       : 0.133
    Stream size                              : 4.24 GiB (73%)
    Title                                    : Silencio desde el mal (2007) Full 1080p Latino
    Writing library                          : x264 core 148 r2708 86b7198
    Encoding settings                        : cabac=1 / ref=4 / deblock=1:0:0 / analyse=0x3:0x133 / me=esa / subme=10 / psy=1 / psy_rd=1.00:0.00 / mixed_ref=1 / me_range=24 / chroma_me=1 / trellis=2 / 8x8dct=1 / cqm=0 / deadzone=21,11 / fast_pskip=1 / chroma_qp_offset=-2 / threads=34 / lookahead_threads=5 / sliced_threads=0 / nr=0 / decimate=1 / interlaced=0 / bluray_compat=0 / constrained_intra=0 / bframes=8 / b_pyramid=2 / b_adapt=2 / b_bias=0 / direct=3 / weightb=1 / open_gop=0 / weightp=2 / keyint=240 / keyint_min=24 / scenecut=40 / intra_refresh=0 / rc_lookahead=60 / rc=crf / mbtree=1 / crf=20.0 / qcomp=0.60 / qpmin=0 / qpmax=69 / qpstep=4 / vbv_maxrate=62500 / vbv_bufsize=78125 / crf_max=0.0 / nal_hrd=none / filler=0 / ip_ratio=1.40 / aq=1:1.00
    Language                                 : English
    Default                                  : Yes
    Forced                                   : No
    Color range                              : Limited
    Color primaries                          : BT.709
    Transfer characteristics                 : BT.709
    Matrix coefficients                      : BT.709
    Statistics Tags Issue                    : mkvmerge v15.0.0 ('Duel with the Devil') 64-bit 2017-11-06 06:15:14 / mkvmerge v15.0.0 ('Duel with the Devil') 64-bit 2017-11-06 06:15:14 / UTC 2017-11-06T00:38:09Z
    FromStats_BitRate                        : 6795975
    FromStats_Duration                       : 01:31:30.485000000
    FromStats_FrameCount                     : 131640
    FromStats_StreamSize                     : 4664150067

    Audio #1
    ID                                       : 2
    Format                                   : DTS
    Format/Info                              : Digital Theater Systems
    Mode                                     : 16
    Format settings, Endianness              : Big
    Codec ID                                 : A_DTS
    Duration                                 : 1 h 31 min
    Bit rate mode                            : Constant
    Bit rate                                 : 768 kb/s
    Channel(s)                               : 6 channels
    Channel positions                        : Front: L C R, Side: L R, LFE
    Sampling rate                            : 48.0 kHz
    Frame rate                               : 93.750 FPS (512 SPF)
    Bit depth                                : 24 bits
    Compression mode                         : Lossy
    Stream size                              : 503 MiB (8%)
    Title                                    : Latino-DTS
    Language                                 : Spanish
    Default                                  : Yes
    Forced                                   : No
    Statistics Tags Issue                    : mkvmerge v15.0.0 ('Duel with the Devil') 64-bit 2017-11-06 06:15:14 / mkvmerge v15.0.0 ('Duel with the Devil') 64-bit 2017-11-06 06:15:14 / UTC 2017-11-06T00:38:09Z
    FromStats_BitRate                        : 767999
    FromStats_Duration                       : 01:31:30.486000000
    FromStats_FrameCount                     : 514733
    FromStats_StreamSize                     : 527086592

    Audio #2
    ID                                       : 3
    Format                                   : DTS
    Format/Info                              : Digital Theater Systems
    Mode                                     : 16
    Format settings, Endianness              : Big
    Codec ID                                 : A_DTS
    Duration                                 : 1 h 31 min
    Bit rate mode                            : Constant
    Bit rate                                 : 1 509 kb/s
    Channel(s)                               : 6 channels
    Channel positions                        : Front: L C R, Side: L R, LFE
    Sampling rate                            : 48.0 kHz
    Frame rate                               : 93.750 FPS (512 SPF)
    Bit depth                                : 24 bits
    Compression mode                         : Lossy
    Stream size                              : 988 MiB (17%)
    Title                                    : Ingles-DTS
    Language                                 : English
    Default                                  : No
    Forced                                   : No
    Statistics Tags Issue                    : mkvmerge v15.0.0 ('Duel with the Devil') 64-bit 2017-11-06 06:15:14 / mkvmerge v15.0.0 ('Duel with the Devil') 64-bit 2017-11-06 06:15:14 / UTC 2017-11-06T00:38:09Z
    FromStats_BitRate                        : 1508999
    FromStats_Duration                       : 01:31:30.486000000
    FromStats_FrameCount                     : 514733
    FromStats_StreamSize                     : 1035642796

    Text #1
    ID                                       : 4
    Format                                   : PGS
    Muxing mode                              : zlib
    Codec ID                                 : S_HDMV/PGS
    Codec ID/Info                            : Picture based subtitle format used on BDs/HD-DVDs
    Language                                 : English
    Default                                  : No
    Forced                                   : No
    Statistics Tags Issue                    : mkvmerge v15.0.0 ('Duel with the Devil') 64-bit 2017-11-06 06:15:14 / mkvmerge v15.0.0 ('Duel with the Devil') 64-bit 2017-11-06 06:15:14 / UTC 2017-11-06T00:38:09Z
    FromStats_BitRate                        : 22602
    FromStats_Duration                       : 01:23:30.213000000
    FromStats_FrameCount                     : 1374
    FromStats_StreamSize                     : 14155694

    Text #2
    ID                                       : 5
    Format                                   : PGS
    Muxing mode                              : zlib
    Codec ID                                 : S_HDMV/PGS
    Codec ID/Info                            : Picture based subtitle format used on BDs/HD-DVDs
    Language                                 : Spanish
    Default                                  : No
    Forced                                   : No
    Statistics Tags Issue                    : mkvmerge v15.0.0 ('Duel with the Devil') 64-bit 2017-11-06 06:15:14 / mkvmerge v15.0.0 ('Duel with the Devil') 64-bit 2017-11-06 06:15:14 / UTC 2017-11-06T00:38:09Z
    FromStats_BitRate                        : 19002
    FromStats_Duration                       : 01:31:06.502000000
    FromStats_FrameCount                     : 1286
    FromStats_StreamSize                     : 12984670

    Menu
    00:00:00.000                             : :Who's The Dummy
    00:06:21.548                             : :One Left
    00:12:26.204                             : :You Weren't the Last
    00:16:15.016                             : :Long - Lost Relative
    00:18:53.382                             : :A Clue From Henry
    00:22:43.571                             : :Sins of the Father
    00:28:45.933                             : :Don't Scream
    00:30:56.646                             : :To Make the Perfect Doll
    00:38:09.496                             : :No Alibi
    00:44:57.820                             : :A Surprise for Jamie
    00:48:35.037                             : :Mysterious Mail
    00:54:05.200                             : :A Perfect Design
    00:58:21.748                             : :Beware of the Stare
    01:03:26.386                             : :Funeral Arrangements
    01:08:44.704                             : :Raven's Fair
    01:12:04.028                             : :Nothing Else to Tell
    01:20:09.847                             : :Plagued By Death
    01:24:58.093                             : :Billy
    01:27:18.233                             : :Bury the Doll

  • Peso: 5.81 GiB

Sinopsis

Un joven viudo (Kwanten) regresa a su hogar para investigar el asesinato de su mujer. Allí descubre la leyenda de Mary Shaw, una ventrílocua que pidió ser enterrada junto a sus 101 “muñecos”. Uno de ellos parece haber vuelto de la tumba, y no precisamente con buenas intenciones… De los creadores de “Saw”.

Ficha técnica

Video trailer de la película

Enlaces de descarga

Descargar Silencio desde el mal (2007) Full 1080p Latino
Descargar

dpeliculas

Aportes de DPeliculasHDmega la pass es:dpeliculashdmega.org Aportes de CinemaniaHD la pass es:cinemaniahdd.com
Guardado en : FULL 1080p Pesadas , Terror

Películas relacionadas

  • Open Water 3 (2017) 1080p Latino

    2017
    Open Water 3 (2017) 1080p Latino

    0.0 1 h 20 min 2017

    Tres amigos viajan a Australia con la intención de grabar un vídeo buceando entre tiburones, que les...

    Director: Gerald Rascionato

    Género: Drama

    Actores: Tara Wraith

  • El vagón de la muerte (2008) UNRATED Full 1080p Latino

    2008
    El vagón de la muerte (2008) UNRATED Full 1080p Latino

    0.0 1 h 42 min 2008

    La dueña de una exitosa galería de arte le propone al fotógrafo Leon Kauffman llevar a cabo un trabajo...

    Director: Ryûhei Kitamura

    Género: Crimen

    Actores: Vinnie Jones

  • The Bourne Ultimátum (2007) Full 1080p Latino

    2007
    The Bourne Ultimátum (2007) Full 1080p Latino

    5.0 1 h 55 min 2007

    Jason Bourne sigue investigando quién es y qué hay realmente detrás del programa secreto de la CIA...

    Director: Sue Mahoney

    Género: Acción

    Actores: William H. Burns

  • The Bourne Supremacy (2004) Full 1080p Latino

    2004
    The Bourne Supremacy (2004) Full 1080p Latino

    5.0 1h 48m 2004

    El pasado de Jason Bourne vuelve por él. En la segunda entrega de la saga de tres películas basadas...

    Director: Thorne Mutert

    Género: Acción

    Actores: Yevgeni Sitokhin

Comentarios 0