Silencio (2016) FULL 1080p x265 Latino

895 vistas
1 estrella2 estrellas3 estrellas4 estrellas5 estrellas (1 votos, promedio: 5,00 de 5)
Cargando…

Información de Silencio (2016) FULL 1080p x265 Latino

Datos de la película

  • Calidad: Full 1080p
  • Audio: Español Latino AC3 5.1 BLURAY - Ingles DTS 5.1 BLURAY
  • Subtitulos: Español Latino PGS
  • Resolución: 1920x1080p
  • Formato: MKV
  • Codec: H.265
  • Encoder:
  • Mediainfo: Ver Ver
  • Silencio (2016) 1080p BluRay x265 HEVC DTS Dual Latino.mkv
    Format                      : Matroska
    Format version              : Version 4 / Version 2
    File size                   : 5.18 GiB
    Duration                    : 2h 41mn
    Overall bit rate            : 4 605 Kbps
    Encoded date                : UTC 2017-04-16 22:48:35
    Writing application         : mkvmerge v8.6.1 ('Flying') 64bit
    Writing library             : libebml v1.3.3 + libmatroska v1.4.4
    DURATION                    : 02:35:40.164000000
    NUMBER_OF_FRAMES            : 3306
    NUMBER_OF_BYTES             : 28241453
    _STATISTICS_WRITING_APP     : mkvmerge v8.6.1 ('Flying') 64bit
    _STATISTICS_WRITING_DATE_UT : 2017-04-16 22:48:35
    _STATISTICS_TAGS            : BPS DURATION NUMBER_OF_FRAMES NUMBER_OF_BYTES

    Video
    ID                          : 1
    Format                      : HEVC
    Format/Info                 : High Efficiency Video Coding
    Format profile              : [email protected]@Main
    Codec ID                    : V_MPEGH/ISO/HEVC
    Duration                    : 2h 41mn
    Bit rate                    : 2 365 Kbps
    Width                       : 1 920 pixels
    Height                      : 1 080 pixels
    Display aspect ratio        : 16:9
    Frame rate mode             : Constant
    Frame rate                  : 23.976 fps
    Color space                 : YUV
    Chroma subsampling          : 4:2:0
    Bit depth                   : 8 bits
    Bits/(Pixel*Frame)          : 0.048
    Stream size                 : 2.66 GiB (51%)
    Writing library             : x265 2.1:[Windows][GCC 5.4.0][64 bit] 8bit
    Encoding settings           : wpp / ctu=64 / min-cu-size=8 / max-tu-size=32 / tu-intra-depth=1 / tu-inter-depth=1 / me=3 / subme=3 / merange=57 / rect / no-amp / max-merge=3 / temporal-mvp / no-early-skip / rskip / rdpenalty=0 / no-tskip / no-tskip-fast / strong-intra-smoothing / no-lossless / no-cu-lossless / no-constrained-intra / no-fast-intra / open-gop / no-temporal-layers / interlace=0 / keyint=240 / min-keyint=24 / scenecut=40 / rc-lookahead=25 / lookahead-slices=4 / bframes=4 / bframe-bias=0 / b-adapt=2 / ref=4 / limit-refs=3 / limit-modes / weightp / no-weightb / aq-mode=1 / qg-size=32 / aq-strength=1.00 / cbqpoffs=0 / crqpoffs=0 / rd=4 / psy-rd=2.00 / rdoq-level=2 / psy-rdoq=1.00 / log2-max-poc-lsb=8 / no-rd-refine / signhide / deblock=0:0 / sao / no-sao-non-deblock / b-pyramid / cutree / no-intra-refresh / rc=crf / crf=20.0 / qcomp=0.60 / qpmin=0 / qpmax=69 / qpstep=4 / ipratio=1.40 / pbratio=1.30
    Default                     : Yes
    Forced                      : No
    Color range                 : Limited
    Color primaries             : BT.709
    Transfer characteristics    : BT.709
    Matrix coefficients         : BT.709
    DURATION                    : 02:41:09.493000000
    NUMBER_OF_FRAMES            : 231835
    NUMBER_OF_BYTES             : 2937529313
    _STATISTICS_WRITING_APP     : mkvmerge v8.6.1 ('Flying') 64bit
    _STATISTICS_WRITING_DATE_UT : 2017-04-16 22:48:35
    _STATISTICS_TAGS            : BPS DURATION NUMBER_OF_FRAMES NUMBER_OF_BYTES

    Audio #1
    ID                          : 2
    Format                      : AC-3
    Format/Info                 : Audio Coding 3
    Mode extension              : CM (complete main)
    Format settings, Endianness : Big
    Codec ID                    : A_AC3
    Duration                    : 2h 41mn
    Bit rate mode               : Constant
    Bit rate                    : 640 Kbps
    Channel(s)                  : 6 channels
    Channel positions           : Front: L C R, Side: L R, LFE
    Sampling rate               : 48.0 KHz
    Compression mode            : Lossy
    Stream size                 : 738 MiB (14%)
    Title                       : Español Latino AC3 5.1 [640 Kbps]
    Language                    : Spanish
    Default                     : Yes
    Forced                      : No

    Audio #2
    ID                          : 3
    Format                      : DTS
    Format/Info                 : Digital Theater Systems
    Mode                        : 16
    Format settings, Endianness : Big
    Codec ID                    : A_DTS
    Duration                    : 2h 41mn
    Bit rate mode               : Constant
    Bit rate                    : 1 509 Kbps
    Channel(s)                  : 6 channels
    Channel positions           : Front: L C R, Side: L R, LFE
    Sampling rate               : 48.0 KHz
    Bit depth                   : 24 bits
    Compression mode            : Lossy
    Stream size                 : 1.70 GiB (33%)
    Title                       : Inglés DTS 5.1 [1509 Kbps]
    Language                    : English
    Default                     : No
    Forced                      : No

    Text #1
    ID                          : 4
    Format                      : UTF-8
    Codec ID                    : S_TEXT/UTF8
    Codec ID/Info               : UTF-8 Plain Text
    Title                       : Subtítulos Español Latino - Forzados [SRT]
    Language                    : Spanish
    Default                     : No
    Forced                      : Yes

    Text #2
    ID                          : 5
    Format                      : UTF-8
    Codec ID                    : S_TEXT/UTF8
    Codec ID/Info               : UTF-8 Plain Text
    Title                       : Subtítulos Español Latino [SRT]
    Language                    : Spanish
    Default                     : No
    Forced                      : No

    Text #3
    ID                          : 6
    Format                      : PGS
    Codec ID                    : S_HDMV/PGS
    Codec ID/Info               : Picture based subtitle format used on BDs/HD-DVDs
    Title                       : Subtítulos Español Latino [PGS]
    Language                    : Spanish
    Default                     : No
    Forced                      : No

    Menu
    00:00:00.000                : :Chapter 1
    00:12:59.904                : :Chapter 2
    00:22:15.793                : :Chapter 3
    00:33:21.708                : :Chapter 4
    00:41:58.725                : :Chapter 5
    00:51:14.029                : :Chapter 6
    01:03:15.292                : :Chapter 7
    01:10:57.128                : :Chapter 8
    01:22:59.099                : :Chapter 9
    01:30:19.915                : :Chapter 10
    01:41:49.645                : :Chapter 11
    01:47:57.012                : :Chapter 12
    01:54:46.546                : :Chapter 13
    02:10:37.163                : :Chapter 14
    02:19:11.051                : :Chapter 15
    02:34:22.253                : :Chapter 16

  • Peso: 5.18 GB

Sinopsis

Dos sacerdotes jesuitas, Sebastião Rodrigues y Francis Garrpe, viajan al Japón del siglo XVII que, bajo el shogunato Tokugawa, prohibió el catolicismo y casi todos los contactos extranjeros. Allí son testigos de la persecución de los cristianos japoneses a manos de su propio gobierno que desea purgar Japón de toda influencia occidental. Eventualmente los sacerdotes se separan y Rodrigues viaja por el campo, preguntándose por qué Dios permanece en silencio mientras Sus hijos sufren.

Ficha técnica

Imágenes, Capturas de la película

Video trailer de la película

Enlaces de descarga

Descargar
Descargar Silencio (2016) FULL 1080p x265 Latino

dpeliculas

Aportes de DPeliculasHDmega la pass es:dpeliculashdmega.org Aportes de CinemaniaHD la pass es:cinemaniahdd.com
Guardado en : 1080p x265 HEVC , Drama , Historia

PelícuDelas relacionadas

  • The Resurrection of Gavin Stone (2017) 1080p Latino

    2017
    The Resurrection of Gavin Stone (2017) 1080p Latino

    0.0 1 h 31 min 2017

    Una antigua estrella infantil se ve obligada a prestar un servicio comunitario en una gran iglesia de...

    Director: Dallas Jenkins

    Género: Comedia

    Actores: Tim Frank

  • Secuestrado (2017) 1080p Latino

    2017
    Secuestrado (2017) 1080p Latino

    0.0 1h 34m 2017

    Una madre no se detendrá ante nada para intentar recuperar a su hijo cuando este es secuestrado delante...

    Director: Nicole Garcea

    Género: Drama

    Actores: Timothy Fannon

  • The Phenom (2016) 1080p Latino

    2016
    The Phenom (2016) 1080p Latino

    0.0 1 h 27 min 2016

    Noah Buschel (Glass Chin) escribe y dirige este drama deportivo sobre un joven atleta tan torturado por...

    Director: Noah Buschel

    Género: Drama

    Actores: Yul Vazquez

  • The Good Catholic (2017) Full 1080p Latino

    2017
    The Good Catholic (2017) Full 1080p Latino

    0.0 1 h 37 min 2017

    Daniel amaba su trabajo como sacerdote de un pequeño pueblo más que nada. Entonces conoció a Jane....

    Director: Paul Shoulberg

    Género: Comedia

    Actores: Zachary Spicer

Comentarios 1
  • itofeddy - 22 abril, 2017

    Gracias nuevamente por los aportes en H.265