Shopkins Chef Club (2016) 1080p WEB-DL Latino

333 vistas
1 estrella2 estrellas3 estrellas4 estrellas5 estrellas (Ninguna valoración todavía)
Cargando…

Información de Shopkins Chef Club (2016) 1080p WEB-DL Latino

Datos de la película

  • Calidad: WEBDL
  • Audio: Español Latino AC3 5.1 iTunes - Ingles AC3 5.1 iTunes
  • Subtitulos: No
  • Resolución: 1916x1076p
  • Formato: MKV
  • Codec: H.264
  • Encoder: dpelis1
  • Mediainfo: Ver Ver
  • Video
    ID                                       : 4
    Format                                   : AVC
    Format/Info                              : Advanced Video Codec
    Format profile                           : [email protected]
    Format settings, CABAC                   : Yes
    Format settings, RefFrames               : 4 frames
    Codec ID                                 : V_MPEG4/ISO/AVC
    Duration                                 : 44 min 39 s
    Bit rate                                 : 5 068 kb/s
    Width                                    : 1 916 pixels
    Height                                   : 1 076 pixels
    Display aspect ratio                     : 16:9
    Frame rate mode                          : Constant
    Frame rate                               : 23.976 FPS
    Color space                              : YUV
    Chroma subsampling                       : 4:2:0
    Bit depth                                : 8 bits
    Scan type                                : Progressive
    Bits/(Pixel*Frame)                       : 0.103
    Stream size                              : 1.58 GiB (85%)
    Language                                 : English
    Default                                  : Yes
    Forced                                   : No
    Color range                              : Limited
    Color primaries                          : BT.709
    Transfer characteristics                 : BT.709
    Matrix coefficients                      : BT.709

    Audio #1
    ID                                       : 1
    Format                                   : AC-3
    Format/Info                              : Audio Coding 3
    Format settings, Endianness              : Big
    Codec ID                                 : A_AC3
    Duration                                 : 44 min 29 s
    Bit rate mode                            : Constant
    Bit rate                                 : 384 kb/s
    Channel(s)                               : 6 channels
    Channel positions                        : Front: L C R, Side: L R, LFE
    Sampling rate                            : 48.0 kHz
    Frame rate                               : 31.250 FPS (1536 SPF)
    Bit depth                                : 16 bits
    Compression mode                         : Lossy
    Stream size                              : 122 MiB (6%)
    Language                                 : Spanish
    Service kind                             : Complete Main
    Default                                  : Yes
    Forced                                   : No

    Audio #2
    ID                                       : 2
    Format                                   : AAC
    Format/Info                              : Advanced Audio Codec
    Format profile                           : LC
    Codec ID                                 : A_AAC
    Duration                                 : 44 min 29 s
    Bit rate                                 : 127 kb/s
    Channel(s)                               : 2 channels
    Channel positions                        : Front: L R
    Sampling rate                            : 48.0 kHz
    Frame rate                               : 46.875 FPS (1024 SPF)
    Compression mode                         : Lossy
    Stream size                              : 40.3 MiB (2%)
    Language                                 : English
    Default                                  : No
    Forced                                   : No

    Audio #3
    ID                                       : 3
    Format                                   : AC-3
    Format/Info                              : Audio Coding 3
    Format settings, Endianness              : Big
    Codec ID                                 : A_AC3
    Duration                                 : 44 min 29 s
    Bit rate mode                            : Constant
    Bit rate                                 : 384 kb/s
    Channel(s)                               : 6 channels
    Channel positions                        : Front: L C R, Side: L R, LFE
    Sampling rate                            : 48.0 kHz
    Frame rate                               : 31.250 FPS (1536 SPF)
    Bit depth                                : 16 bits
    Compression mode                         : Lossy
    Stream size                              : 122 MiB (6%)
    Language                                 : English
    Service kind                             : Complete Main
    Default                                  : No
    Forced                                   : No

    Menu
    00:00:00.000                             : en:1
    00:10:50.000                             : en:2
    00:23:30.000                             : en:3
    00:31:19.000                             : en:4
    00:41:36.000                             : en:5

  • Peso: 1,85

Sinopsis

La vida nunca es ordinaria en Shopville, pero las cosas están a punto de obtener un poco extraordinario con la llegada del Chef Club, organizado por el nuevo Shoppie-on-the-block Peppa-Mint y sus amigos Shopkin. Para ser aceptado, los Shoppies tendrán que cantar, bailar, hervir y blanquear su camino a la victoria. ¡Pero no son sólo las ollas que se cocinan! Cuando Bubbleisha siente que no está recibiendo la atención que se le debe, las cosas se convierten de dulce a agria más rápido que un batido de leche en el sol! ¿Pueden los Shoppies unirse para evitar esta receta del desastre?

Ficha técnica

  • Titulo original: Shopkins Chef Club
  • Fecha de lanzamiento: 25-10-2016
  • Director: Raymond McGrath
  • Género: Animación, Familia
  • Puntuación: 0.0 0 votos
  • Duración:
    0h 0m

Imágenes, Capturas de la película

Video trailer de la película

Enlaces de descarga

Descargar Shopkins Chef Club (2016) 1080p WEB-DL Latino
Descargar

dpeliculas

Aportes de DPeliculasHDmega la pass es:dpeliculashdmega.org Aportes de CinemaniaHD la pass es:cinemaniahdd.com
Guardado en : Animación , Familia

PelícuDelas relacionadas

Comentarios 1
  • Gustavo - 19 septiembre, 2017

    Gracias por subirlo a Google Drive