Advertise here

Sherlock Holmes: Juego de sombras (2011) Full 1080p Latino

472 vistas
1 estrella2 estrellas3 estrellas4 estrellas5 estrellas (Ninguna valoración todavía)
Cargando…

Información de Sherlock Holmes: Juego de sombras (2011) Full 1080p Latino

Datos de la película

  • Calidad: Full 1080p
  • Audio: Español Latino AC3 5.1 BLURAY - Ingles DTS 5.1 BLURAY
  • Subtitulos: Español Latino PGS - Ingles PGS
  • Resolución: 1920X1080
  • Formato: MKV
  • Codec: H.264
  • Encoder: Dpelis
  • Mediainfo: Clic para Mostrar Datos Ver
  • Format                                   : Matroska
    Format version                           : Version 4 / Version 2
    File size                                : 6.62 GiB
    Duration                                 : 2 h 8 min
    Overall bit rate                         : 7 357 kb/s
    Movie name                               : dpeliculashdmega.org
    Encoded date                             : UTC 2017-11-12 02:32:01 / UTC 2017-11-11T19:08:39Z
    Writing application                      : mkvmerge v15.0.0 ('Duel with the Devil') 64-bit
    Writing library                          : libebml v1.3.5 + libmatroska v1.4.5 / Lavf57.7.2

    Video
    ID                                       : 1
    Format                                   : AVC
    Format/Info                              : Advanced Video Codec
    Format profile                           : [email protected]
    Format settings                          : CABAC / 4 Ref Frames
    Format settings, CABAC                   : Yes
    Format settings, RefFrames               : 4 frames
    Codec ID                                 : V_MPEG4/ISO/AVC
    Duration                                 : 2 h 8 min
    Bit rate                                 : 5 253 kb/s
    Width                                    : 1 920 pixels
    Height                                   : 1 080 pixels
    Display aspect ratio                     : 16:9
    Frame rate mode                          : Constant
    Frame rate                               : 23.976 (24000/1001) FPS
    Color space                              : YUV
    Chroma subsampling                       : 4:2:0
    Bit depth                                : 8 bits
    Scan type                                : Progressive
    Bits/(Pixel*Frame)                       : 0.106
    Stream size                              : 4.72 GiB (71%)
    Title                                    : Sherlock Holmes Juego de sombras (2011) Full 1080p Latino
    Writing library                          : x264 core 148 r2708 86b7198
    Encoding settings                        : cabac=1 / ref=4 / deblock=1:0:0 / analyse=0x3:0x133 / me=esa / subme=10 / psy=1 / psy_rd=1.00:0.00 / mixed_ref=1 / me_range=24 / chroma_me=1 / trellis=2 / 8x8dct=1 / cqm=0 / deadzone=21,11 / fast_pskip=1 / chroma_qp_offset=-2 / threads=34 / lookahead_threads=5 / sliced_threads=0 / nr=0 / decimate=1 / interlaced=0 / bluray_compat=0 / constrained_intra=0 / bframes=8 / b_pyramid=2 / b_adapt=2 / b_bias=0 / direct=3 / weightb=1 / open_gop=0 / weightp=2 / keyint=240 / keyint_min=24 / scenecut=40 / intra_refresh=0 / rc_lookahead=60 / rc=crf / mbtree=1 / crf=20.0 / qcomp=0.60 / qpmin=0 / qpmax=69 / qpstep=4 / vbv_maxrate=62500 / vbv_bufsize=78125 / crf_max=0.0 / nal_hrd=none / filler=0 / ip_ratio=1.40 / aq=1:1.00
    Language                                 : English
    Default                                  : Yes
    Forced                                   : No
    Color range                              : Limited
    Color primaries                          : BT.709
    Transfer characteristics                 : BT.709
    Matrix coefficients                      : BT.709
    Statistics Tags Issue                    : mkvmerge v15.0.0 ('Duel with the Devil') 64-bit 2017-11-12 02:32:01 / mkvmerge v15.0.0 ('Duel with the Devil') 64-bit 2017-11-12 02:32:01 / UTC 2017-11-11T19:08:39Z
    FromStats_BitRate                        : 5372354
    FromStats_Duration                       : 02:08:44.759000000
    FromStats_FrameCount                     : 185209
    FromStats_StreamSize                     : 5187518007

    Audio #1
    ID                                       : 2
    Format                                   : AC-3
    Format/Info                              : Audio Coding 3
    Format settings, Endianness              : Big
    Codec ID                                 : A_AC3
    Duration                                 : 2 h 8 min
    Bit rate mode                            : Constant
    Bit rate                                 : 448 kb/s
    Channel(s)                               : 6 channels
    Channel positions                        : Front: L C R, Side: L R, LFE
    Sampling rate                            : 48.0 kHz
    Frame rate                               : 31.250 FPS (1536 SPF)
    Bit depth                                : 16 bits
    Compression mode                         : Lossy
    Stream size                              : 413 MiB (6%)
    Title                                    : Latino-AC3
    Language                                 : Spanish
    Service kind                             : Complete Main
    Default                                  : Yes
    Forced                                   : No
    Statistics Tags Issue                    : mkvmerge v15.0.0 ('Duel with the Devil') 64-bit 2017-11-12 02:32:01 / mkvmerge v15.0.0 ('Duel with the Devil') 64-bit 2017-11-12 02:32:01 / UTC 2017-11-11T19:08:39Z
    FromStats_BitRate                        : 448000
    FromStats_Duration                       : 02:08:44.768000000
    FromStats_FrameCount                     : 241399
    FromStats_StreamSize                     : 432587008

    Audio #2
    ID                                       : 3
    Format                                   : DTS
    Format/Info                              : Digital Theater Systems
    Mode                                     : 16
    Format settings, Endianness              : Big
    Codec ID                                 : A_DTS
    Duration                                 : 2 h 8 min
    Bit rate mode                            : Constant
    Bit rate                                 : 1 509 kb/s
    Channel(s)                               : 6 channels
    Channel positions                        : Front: L C R, Side: L R, LFE
    Sampling rate                            : 48.0 kHz
    Frame rate                               : 93.750 FPS (512 SPF)
    Bit depth                                : 24 bits
    Compression mode                         : Lossy
    Stream size                              : 1.36 GiB (21%)
    Title                                    : Ingles-DTS
    Language                                 : English
    Default                                  : No
    Forced                                   : No
    Statistics Tags Issue                    : mkvmerge v15.0.0 ('Duel with the Devil') 64-bit 2017-11-12 02:32:01 / mkvmerge v15.0.0 ('Duel with the Devil') 64-bit 2017-11-12 02:32:01 / UTC 2017-11-11T19:08:39Z
    FromStats_BitRate                        : 1509000
    FromStats_Duration                       : 02:08:44.768000000
    FromStats_FrameCount                     : 724197
    FromStats_StreamSize                     : 1457084364

    Text #1
    ID                                       : 4
    Format                                   : PGS
    Muxing mode                              : zlib
    Codec ID                                 : S_HDMV/PGS
    Codec ID/Info                            : Picture based subtitle format used on BDs/HD-DVDs
    Title                                    : PGS-Forzados
    Language                                 : Spanish
    Default                                  : Yes
    Forced                                   : No
    Statistics Tags Issue                    : mkvmerge v15.0.0 ('Duel with the Devil') 64-bit 2017-11-12 02:32:01 / mkvmerge v15.0.0 ('Duel with the Devil') 64-bit 2017-11-12 02:32:01 / UTC 2017-11-11T19:08:39Z
    FromStats_BitRate                        : 701
    FromStats_Duration                       : 02:08:42.339000000
    FromStats_FrameCount                     : 94
    FromStats_StreamSize                     : 676775

    Text #2
    ID                                       : 5
    Format                                   : PGS
    Muxing mode                              : zlib
    Codec ID                                 : S_HDMV/PGS
    Codec ID/Info                            : Picture based subtitle format used on BDs/HD-DVDs
    Title                                    : PGS-Completos
    Language                                 : Spanish
    Default                                  : No
    Forced                                   : No
    Statistics Tags Issue                    : mkvmerge v15.0.0 ('Duel with the Devil') 64-bit 2017-11-12 02:32:01 / mkvmerge v15.0.0 ('Duel with the Devil') 64-bit 2017-11-12 02:32:01 / UTC 2017-11-11T19:08:39Z
    FromStats_BitRate                        : 25198
    FromStats_Duration                       : 02:08:10.807000000
    FromStats_FrameCount                     : 2558
    FromStats_StreamSize                     : 24224217

    Text #3
    ID                                       : 6
    Format                                   : PGS
    Muxing mode                              : zlib
    Codec ID                                 : S_HDMV/PGS
    Codec ID/Info                            : Picture based subtitle format used on BDs/HD-DVDs
    Title                                    : PGS-Ingles
    Language                                 : English
    Default                                  : No
    Forced                                   : No
    Statistics Tags Issue                    : mkvmerge v15.0.0 ('Duel with the Devil') 64-bit 2017-11-12 02:32:01 / mkvmerge v15.0.0 ('Duel with the Devil') 64-bit 2017-11-12 02:32:01 / UTC 2017-11-11T19:08:39Z
    FromStats_BitRate                        : 28679
    FromStats_Duration                       : 02:08:22.194000000
    FromStats_FrameCount                     : 2900
    FromStats_StreamSize                     : 27612237

    Menu
    00:00:00.000                             : :00:00:00.000
    00:09:18.266                             : :00:09:18.266
    00:19:37.635                             : :00:19:37.635
    00:30:46.845                             : :00:30:46.845
    00:40:13.703                             : :00:40:13.703
    00:50:29.026                             : :00:50:29.026
    00:59:45.457                             : :00:59:45.457
    01:09:20.823                             : :01:09:20.823
    01:18:58.275                             : :01:18:58.275
    01:30:08.695                             : :01:30:08.695
    01:39:08.734                             : :01:39:08.734
    01:49:50.375                             : :01:49:50.375
    02:00:24.718                             : :02:00:24.717

  • Peso: 6.62 GiB

Sinopsis

Sherlock Holmes (Robert Downey Jr.) siempre ha sido el tipo más listo de la habitación… hasta ahora. El Profesor Moriarty (Jared Harris), un genio del crimen, hace acto de aparición, y no sólo es el símil intelectual de Holmes, pero su capacidad para el mal, junto con una falta total de conciencia, en realidad puede darle una ventaja sobre el reconocido detective. Cuando encuentran muerto al príncipe heredero de Austria, la evidencia, según lo interpretado por el Inspector Lestrade (Eddie Marsan), apunta al suicidio. Pero Sherlock Holmes deduce que el príncipe ha sido víctima de un asesinato, un crimen que sólo es una pieza de un rompecabezas mucho más grande y portentoso diseñado por Moriarty. Mezclando los negocios con el placer, las pistas conducen a Holmes a un club de caballeros donde él y su hermano, Mycroft Holmes (Stephen Fry) brindan por la despedida de soltero del Dr. Watson.

Ficha técnica

Video trailer de la película

Enlaces de descarga

Descargar Sherlock Holmes: Juego de sombras (2011) Full 1080p Latino
Descargar

dpeliculas

Aportes de DPeliculasHDmega la pass es:dpeliculashdmega.org Aportes de CinemaniaHD la pass es:cinemaniahdd.com

Películas relacionadas

  • Toy Story 3 (2010) Full 1080p Latino

    2010
    Toy Story 3 (2010) Full 1080p Latino

    0.0 1 h 43 min 2010

    Sabiendo que su dueño Andy, que ya no es un niño, se prepara para ir a la universidad, el vaquero Woody,...

    Director: Mark Sanford

    Género: Animación

    Actores: Whoopi Goldberg

  • Toy Story (1995) Full 1080p Latino

    1995
    Toy Story (1995) Full 1080p Latino

    0.0 1 h 21 min 1995

    Los juguetes de Andy, un niño de 6 años, temen que haya llegado su hora y que un nuevo regalo de cumpleaños...

    Director: Roman Figun

    Género: Animación

    Actores: Wallace Shawn

  • Avatar (2009) EXTENDED Full 1080p Latino

    2009
    Avatar (2009) EXTENDED Full 1080p Latino

    0.0 2 h 58 min 2009

    Jake Sully, un ex-marine confinado a una silla de ruedas, es reclutado para viajar al planeta Pandora,...

    Director: James Cameron

    Género: Acción

    Actores: Zoe Saldana

Comentarios 6
  • leonidas2016 - 14 noviembre, 2017

    Bajando las dos , muchas gracias

  • Jonna - 12 noviembre, 2017

    Esperando la primera gracias

    • Dpelis2 pelis2

      Autor
      - 12 noviembre, 2017

      Ya esta subida.

      • Jonna - 19 noviembre, 2017

        Descargando esta también, muchas gracias por las 2

  • jk2018 - 12 noviembre, 2017

    espero que posteara la primera en pgs …gracias

    • Dpelis2 pelis2

      Autor
      - 12 noviembre, 2017

      Las dos traen PGS.