Advertise here

Sherlock Holmes (2008) Full 1080p Latino

491 vistas
1 estrella2 estrellas3 estrellas4 estrellas5 estrellas (Ninguna valoración todavía)
Cargando…

Información de Sherlock Holmes (2008) Full 1080p Latino

Datos de la película

  • Calidad: Full 1080p
  • Audio: Español Latino AC3 5.1 BLURAY - Ingles DTS 5.1 BLURAY
  • Subtitulos: Español Latino PGS - Ingles PGS
  • Resolución: 1920X1080
  • Formato: MKV
  • Codec: H.264
  • Encoder: Dpelis
  • Mediainfo: Clic para Mostrar Datos Ver
  • Format                                   : Matroska
    Format version                           : Version 4 / Version 2
    File size                                : 8.15 GiB
    Duration                                 : 2 h 8 min
    Overall bit rate                         : 9 086 kb/s
    Movie name                               : dpeliculashdmega.org
    Encoded date                             : UTC 2017-11-10 03:28:56 / UTC 2017-11-09T13:46:08Z
    Writing application                      : mkvmerge v15.0.0 ('Duel with the Devil') 64-bit
    Writing library                          : libebml v1.3.5 + libmatroska v1.4.5 / Lavf57.7.2

    Video
    ID                                       : 1
    Format                                   : AVC
    Format/Info                              : Advanced Video Codec
    Format profile                           : [email protected]
    Format settings                          : CABAC / 4 Ref Frames
    Format settings, CABAC                   : Yes
    Format settings, RefFrames               : 4 frames
    Codec ID                                 : V_MPEG4/ISO/AVC
    Duration                                 : 2 h 8 min
    Bit rate                                 : 6 949 kb/s
    Width                                    : 1 920 pixels
    Height                                   : 1 080 pixels
    Display aspect ratio                     : 16:9
    Frame rate mode                          : Constant
    Frame rate                               : 23.976 (24000/1001) FPS
    Color space                              : YUV
    Chroma subsampling                       : 4:2:0
    Bit depth                                : 8 bits
    Scan type                                : Progressive
    Bits/(Pixel*Frame)                       : 0.140
    Stream size                              : 6.23 GiB (76%)
    Title                                    : Sherlock Holmes (2008) Full 1080p Latino
    Writing library                          : x264 core 148 r2708 86b7198
    Encoding settings                        : cabac=1 / ref=4 / deblock=1:0:0 / analyse=0x3:0x133 / me=esa / subme=10 / psy=1 / psy_rd=1.00:0.00 / mixed_ref=1 / me_range=24 / chroma_me=1 / trellis=2 / 8x8dct=1 / cqm=0 / deadzone=21,11 / fast_pskip=1 / chroma_qp_offset=-2 / threads=34 / lookahead_threads=5 / sliced_threads=0 / nr=0 / decimate=1 / interlaced=0 / bluray_compat=0 / constrained_intra=0 / bframes=8 / b_pyramid=2 / b_adapt=2 / b_bias=0 / direct=3 / weightb=1 / open_gop=0 / weightp=2 / keyint=240 / keyint_min=24 / scenecut=40 / intra_refresh=0 / rc_lookahead=60 / rc=crf / mbtree=1 / crf=20.0 / qcomp=0.60 / qpmin=0 / qpmax=69 / qpstep=4 / vbv_maxrate=62500 / vbv_bufsize=78125 / crf_max=0.0 / nal_hrd=none / filler=0 / ip_ratio=1.40 / aq=1:1.00
    Language                                 : English
    Default                                  : Yes
    Forced                                   : No
    Color range                              : Limited
    Color primaries                          : BT.709
    Transfer characteristics                 : BT.709
    Matrix coefficients                      : BT.709
    Statistics Tags Issue                    : mkvmerge v15.0.0 ('Duel with the Devil') 64-bit 2017-11-10 03:28:56 / mkvmerge v15.0.0 ('Duel with the Devil') 64-bit 2017-11-10 03:28:56 / UTC 2017-11-09T13:46:08Z
    FromStats_BitRate                        : 7100532
    FromStats_Duration                       : 02:08:24.739000000
    FromStats_FrameCount                     : 184729
    FromStats_StreamSize                     : 6838468725

    Audio #1
    ID                                       : 2
    Format                                   : AC-3
    Format/Info                              : Audio Coding 3
    Format settings, Endianness              : Big
    Codec ID                                 : A_AC3
    Duration                                 : 2 h 8 min
    Bit rate mode                            : Constant
    Bit rate                                 : 448 kb/s
    Channel(s)                               : 6 channels
    Channel positions                        : Front: L C R, Side: L R, LFE
    Sampling rate                            : 48.0 kHz
    Frame rate                               : 31.250 FPS (1536 SPF)
    Bit depth                                : 16 bits
    Compression mode                         : Lossy
    Stream size                              : 411 MiB (5%)
    Title                                    : Latino-AC3
    Language                                 : Spanish
    Service kind                             : Complete Main
    Default                                  : Yes
    Forced                                   : No
    Statistics Tags Issue                    : mkvmerge v15.0.0 ('Duel with the Devil') 64-bit 2017-11-10 03:28:56 / mkvmerge v15.0.0 ('Duel with the Devil') 64-bit 2017-11-10 03:28:56 / UTC 2017-11-09T13:46:08Z
    FromStats_BitRate                        : 448000
    FromStats_Duration                       : 02:08:21.792000000
    FromStats_FrameCount                     : 240681
    FromStats_StreamSize                     : 431300352

    Audio #2
    ID                                       : 3
    Format                                   : DTS
    Format/Info                              : Digital Theater Systems
    Mode                                     : 16
    Format settings, Endianness              : Big
    Codec ID                                 : A_DTS
    Duration                                 : 2 h 8 min
    Bit rate mode                            : Constant
    Bit rate                                 : 1 509 kb/s
    Channel(s)                               : 6 channels
    Channel positions                        : Front: L C R, Side: L R, LFE
    Sampling rate                            : 48.0 kHz
    Frame rate                               : 93.750 FPS (512 SPF)
    Bit depth                                : 24 bits
    Compression mode                         : Lossy
    Stream size                              : 1.35 GiB (17%)
    Title                                    : Ingles-DTS
    Language                                 : English
    Default                                  : No
    Forced                                   : No
    Statistics Tags Issue                    : mkvmerge v15.0.0 ('Duel with the Devil') 64-bit 2017-11-10 03:28:56 / mkvmerge v15.0.0 ('Duel with the Devil') 64-bit 2017-11-10 03:28:56 / UTC 2017-11-09T13:46:08Z
    FromStats_BitRate                        : 1508999
    FromStats_Duration                       : 02:08:21.782000000
    FromStats_FrameCount                     : 722042
    FromStats_StreamSize                     : 1452748504

    Text #1
    ID                                       : 4
    Format                                   : PGS
    Muxing mode                              : zlib
    Codec ID                                 : S_HDMV/PGS
    Codec ID/Info                            : Picture based subtitle format used on BDs/HD-DVDs
    Title                                    : PGS-Forzados
    Language                                 : Spanish
    Default                                  : Yes
    Forced                                   : No
    Statistics Tags Issue                    : mkvmerge v15.0.0 ('Duel with the Devil') 64-bit 2017-11-10 03:28:56 / mkvmerge v15.0.0 ('Duel with the Devil') 64-bit 2017-11-10 03:28:56 / UTC 2017-11-09T13:46:08Z
    FromStats_BitRate                        : 442
    FromStats_Duration                       : 02:01:35.371000000
    FromStats_FrameCount                     : 84
    FromStats_StreamSize                     : 403479

    Text #2
    ID                                       : 5
    Format                                   : PGS
    Muxing mode                              : zlib
    Codec ID                                 : S_HDMV/PGS
    Codec ID/Info                            : Picture based subtitle format used on BDs/HD-DVDs
    Title                                    : PGS-Completos
    Language                                 : Spanish
    Default                                  : No
    Forced                                   : No
    Statistics Tags Issue                    : mkvmerge v15.0.0 ('Duel with the Devil') 64-bit 2017-11-10 03:28:56 / mkvmerge v15.0.0 ('Duel with the Devil') 64-bit 2017-11-10 03:28:56 / UTC 2017-11-09T13:46:08Z
    FromStats_BitRate                        : 28005
    FromStats_Duration                       : 02:08:23.112000000
    FromStats_FrameCount                     : 2946
    FromStats_StreamSize                     : 26965886

    Text #3
    ID                                       : 6
    Format                                   : PGS
    Muxing mode                              : zlib
    Codec ID                                 : S_HDMV/PGS
    Codec ID/Info                            : Picture based subtitle format used on BDs/HD-DVDs
    Title                                    : PGS-Ingles
    Language                                 : English
    Default                                  : No
    Forced                                   : No
    Statistics Tags Issue                    : mkvmerge v15.0.0 ('Duel with the Devil') 64-bit 2017-11-10 03:28:56 / mkvmerge v15.0.0 ('Duel with the Devil') 64-bit 2017-11-10 03:28:56 / UTC 2017-11-09T13:46:08Z
    FromStats_BitRate                        : 30860
    FromStats_Duration                       : 02:08:00.214000000
    FromStats_FrameCount                     : 3019
    FromStats_StreamSize                     : 29627307

    Menu
    00:00:00.000                             : :Catching a Killer
    00:06:46.531                             : :Case of Stagnation
    00:11:30.231                             : :Telling About Mary
    00:15:41.607                             : :Blow By Blow
    00:19:08.898                             : :Last Request
    00:23:29.074                             : :Bound Together
    00:27:49.877                             : :Miss Alder for Hire
    00:32:01.253                             : :The Irene I Know
    00:37:08.435                             : :Resurrection
    00:40:50.406                             : :Apt Prediction
    00:44:37.216                             : :Sorcery and Science
    00:47:39.690                             : :Meat or Potatoes?
    00:50:52.174                             : :Giving Up the Ship
    00:55:17.606                             : :Friends in High Places
    00:59:04.458                             : :Blackwood's Lineage
    01:03:04.781                             : :Mutual Danger
    01:06:08.047                             : :Dead and Bath
    01:11:14.103                             : :Remake the World
    01:14:39.350                             : :On Purpose
    01:17:36.318                             : :Lambs to Slaughter
    01:23:35.093                             : :Trap for Three
    01:26:06.953                             : :The Best You Can Do
    01:30:57.160                             : :Next Target
    01:35:15.376                             : :Smoking Out a Coward
    01:39:45.980                             : :Countdown to Noon
    01:44:18.002                             : :Bell and Death Tolls
    01:48:21.954                             : :Cutting a Conjurer Loose
    01:54:02.711                             : :My Weak Spot
    01:56:07.502                             : :Moriarty's Mark
    02:00:26.177                             : :End Credits

  • Peso: 8.15 GiB

Sinopsis

En un nuevo y dinámico retrato de los personajes más famosos de Arthur Conan Doyle, Sherlock Holmes envía a Holmes y a Watson, su incondicional compañero, a enfrentarse a un nuevo reto. Mostrando unas habilidades para luchar tan letales como su legendaria agudeza intelectual, Holmes peleará como nunca para acabar con un nuevo enemigo y desenmarañar así un complot mortal que podría destruir el país. Adaptación del cómic de Lionel Wigram, que reinventaba los personajes de Arthur Conan Doyle, convirtiendo a Sherlock Holmes (Robert Downey Jr.) y al Doctor John Watson (Jude Law) en detectives con habilidades para el boxeo y el uso de la espada, respectivamente.

Ficha técnica

Video trailer de la película

Enlaces de descarga

Descargar Sherlock Holmes (2008) Full 1080p Latino
Descargar

dpeliculas

Aportes de DPeliculasHDmega la pass es:dpeliculashdmega.org Aportes de CinemaniaHD la pass es:cinemaniahdd.com

Películas relacionadas

  • Toy Story 3 (2010) Full 1080p Latino

    2010
    Toy Story 3 (2010) Full 1080p Latino

    0.0 1 h 43 min 2010

    Sabiendo que su dueño Andy, que ya no es un niño, se prepara para ir a la universidad, el vaquero Woody,...

    Director: Mark Sanford

    Género: Animación

    Actores: Whoopi Goldberg

  • Toy Story (1995) Full 1080p Latino

    1995
    Toy Story (1995) Full 1080p Latino

    0.0 1 h 21 min 1995

    Los juguetes de Andy, un niño de 6 años, temen que haya llegado su hora y que un nuevo regalo de cumpleaños...

    Director: Roman Figun

    Género: Animación

    Actores: Wallace Shawn

  • Avatar (2009) EXTENDED Full 1080p Latino

    2009
    Avatar (2009) EXTENDED Full 1080p Latino

    0.0 2 h 58 min 2009

    Jake Sully, un ex-marine confinado a una silla de ruedas, es reclutado para viajar al planeta Pandora,...

    Director: James Cameron

    Género: Acción

    Actores: Zoe Saldana

Comentarios 1
  • Jonna - 18 noviembre, 2017

    Muchas gracias bajando 🙂