Señor, dame paciencia (2017) Full 1080p Castellano

965 vistas
1 estrella2 estrellas3 estrellas4 estrellas5 estrellas (Ninguna valoración todavía)
Cargando…

Información de Señor, dame paciencia (2017) Full 1080p Castellano

Datos de la película

  • Calidad: Full 1080p
  • Audio: Español AC3 5.1 BLURAY
  • Subtitulos: Español PGS - Ingles PGS
  • Resolución: 1920x1080p
  • Formato: MKV
  • Codec: H.264
  • Encoder: Dpelis
  • Mediainfo: Ver Ver
  • Senor Dame Paciencia (2017) Full 1080p Castellano.mkv
    Format                      : Matroska
    Format version              : Version 4 / Version 2
    File size                   : 2.67 GiB
    Duration                    : 1 h 34 min
    Overall bit rate            : 4 049 kb/s
    Movie name                  : DPeliculasHDMega.ORG
    Encoded date                : UTC 2017-10-09 22:50:44 / UTC 2017-10-09T03:55:15Z
    Writing application         : mkvmerge v10.0.0 ('To Drown In You') 64bit
    Writing library             : libebml v1.3.4 + libmatroska v1.4.5 / Lavf57.7.2

    Video
    ID                          : 1
    Format                      : AVC
    Format/Info                 : Advanced Video Codec
    Format profile              : [email protected]
    Format settings, CABAC      : Yes
    Format settings, RefFrames  : 4 frames
    Codec ID                    : V_MPEG4/ISO/AVC
    Duration                    : 1 h 34 min
    Bit rate                    : 3 328 kb/s
    Width                       : 1 920 pixels
    Height                      : 1 080 pixels
    Display aspect ratio        : 16:9
    Frame rate mode             : Constant
    Frame rate                  : 23.976 (24000/1001) FPS
    Color space                 : YUV
    Chroma subsampling          : 4:2:0
    Bit depth                   : 8 bits
    Scan type                   : Progressive
    Bits/(Pixel*Frame)          : 0.067
    Stream size                 : 2.20 GiB (82%)
    Writing library             : x264 core 148 r2708 86b7198
    Encoding settings           : cabac=1 / ref=4 / deblock=1:0:0 / analyse=0x3:0x133 / me=esa / subme=10 / psy=1 / psy_rd=1.00:0.00 / mixed_ref=1 / me_range=24 / chroma_me=1 / trellis=2 / 8x8dct=1 / cqm=0 / deadzone=21,11 / fast_pskip=1 / chroma_qp_offset=-2 / threads=12 / lookahead_threads=2 / sliced_threads=0 / nr=0 / decimate=1 / interlaced=0 / bluray_compat=0 / constrained_intra=0 / bframes=8 / b_pyramid=2 / b_adapt=2 / b_bias=0 / direct=3 / weightb=1 / open_gop=0 / weightp=2 / keyint=240 / keyint_min=24 / scenecut=40 / intra_refresh=0 / rc_lookahead=60 / rc=crf / mbtree=1 / crf=20.0 / qcomp=0.60 / qpmin=0 / qpmax=69 / qpstep=4 / vbv_maxrate=62500 / vbv_bufsize=78125 / crf_max=0.0 / nal_hrd=none / filler=0 / ip_ratio=1.40 / aq=1:1.00
    Default                     : Yes
    Forced                      : No
    Color range                 : Limited
    Color primaries             : BT.709
    Transfer characteristics    : BT.709
    Matrix coefficients         : BT.709
    Statistics Tags Issue       : mkvmerge v10.0.0 ('To Drown In You') 64bit 2017-10-09 22:50:44 / mkvmerge v10.0.0 ('To Drown In You') 64bit 2017-10-09 22:50:44 / UTC 2017-10-09T03:55:15Z
    FromStats_BitRate           : 3379437
    FromStats_Duration          : 01:34:30.999000000
    FromStats_FrameCount        : 135968
    FromStats_StreamSize        : 2395598258

    Audio
    ID                          : 2
    Format                      : AC-3
    Format/Info                 : Audio Coding 3
    Format settings, Endianness : Big
    Codec ID                    : A_AC3
    Duration                    : 1 h 34 min
    Bit rate mode               : Constant
    Bit rate                    : 640 kb/s
    Channel(s)                  : 6 channels
    Channel positions           : Front: L C R, Side: L R, LFE
    Sampling rate               : 48.0 kHz
    Frame rate                  : 31.250 FPS (1536 SPF)
    Bit depth                   : 16 bits
    Compression mode            : Lossy
    Stream size                 : 433 MiB (16%)
    Title                       : Surround
    Language                    : Spanish
    Service kind                : Complete Main
    Default                     : No
    Forced                      : No
    Statistics Tags Issue       : mkvmerge v10.0.0 ('To Drown In You') 64bit 2017-10-09 22:50:44 / mkvmerge v10.0.0 ('To Drown In You') 64bit 2017-10-09 22:50:44 / UTC 2017-10-09T03:55:15Z
    FromStats_BitRate           : 640000
    FromStats_Duration          : 01:34:31.008000000
    FromStats_FrameCount        : 177219
    FromStats_StreamSize        : 453680640

    Text #1
    ID                          : 3
    Format                      : PGS
    Muxing mode                 : zlib
    Codec ID                    : S_HDMV/PGS
    Codec ID/Info               : Picture based subtitle format used on BDs/HD-DVDs
    Language                    : Spanish
    Default                     : No
    Forced                      : No
    Statistics Tags Issue       : mkvmerge v10.0.0 ('To Drown In You') 64bit 2017-10-09 22:50:44 / mkvmerge v10.0.0 ('To Drown In You') 64bit 2017-10-09 22:50:44 / UTC 2017-10-09T03:55:15Z
    FromStats_BitRate           : 14156
    FromStats_Duration          : 01:34:03.763000000
    FromStats_FrameCount        : 3184
    FromStats_StreamSize        : 9986962

    Text #2
    ID                          : 4
    Format                      : PGS
    Muxing mode                 : zlib
    Codec ID                    : S_HDMV/PGS
    Codec ID/Info               : Picture based subtitle format used on BDs/HD-DVDs
    Language                    : English
    Default                     : No
    Forced                      : No
    Statistics Tags Issue       : mkvmerge v10.0.0 ('To Drown In You') 64bit 2017-10-09 22:50:44 / mkvmerge v10.0.0 ('To Drown In You') 64bit 2017-10-09 22:50:44 / UTC 2017-10-09T03:55:15Z
    FromStats_BitRate           : 13097
    FromStats_Duration          : 01:33:23.306000000
    FromStats_FrameCount        : 3304
    FromStats_StreamSize        : 9173695

    Text #3
    ID                          : 5
    Format                      : UTF-8
    Codec ID                    : S_TEXT/UTF8
    Codec ID/Info               : UTF-8 Plain Text
    Language                    : Spanish
    Default                     : Yes
    Forced                      : No
    Statistics Tags Issue       : mkvmerge v10.0.0 ('To Drown In You') 64bit 2017-10-09 22:50:44 / mkvmerge v10.0.0 ('To Drown In You') 64bit 2017-10-09 22:50:44 / UTC 2017-10-09T03:55:15Z
    FromStats_BitRate           : 82
    FromStats_Duration          : 01:34:03.763000000
    FromStats_FrameCount        : 1592
    FromStats_StreamSize        : 58477

    Menu
    00:00:00.000                : :Chapter 1
    00:03:30.919                : :Chapter 2
    00:10:29.129                : :Chapter 3
    00:16:44.420                : :Chapter 4
    00:21:55.773                : :Chapter 5
    00:29:52.541                : :Chapter 6
    00:36:38.863                : :Chapter 7
    00:47:19.045                : :Chapter 8
    00:55:08.096                : :Chapter 9
    01:01:06.496                : :Chapter 10
    01:09:17.195                : :Chapter 11
    01:15:10.089                : :Chapter 12
    01:20:52.389                : :Chapter 13
    01:30:56.284                : :Chapter 14

  • Peso: 2.67 GB

Sinopsis

Gregorio es un banquero muy conservador, muy del Real Madrid y muy gruñón cuya mujer fallece repentinamente y este tendrá que cumplir su última voluntad, que es esparcir sus cenizas en el Guadalquivir. Para llevar a cabo su tarea, Gregorio deberá pasar un fin de semana en Sanlúcar de Barrameda con sus hijos. De esta manera, tendrá que convivir con el novio de su hija Sandra, un catalán muy culé, y con el de Alicia, un hippy. Además, su hijo Carlos, con el que lleva meses sin hablarse por “salir del armario” se presenta con su novio Eneko, un vasco de origen senegalés.

Ficha técnica

Imágenes, Capturas de la película

Video trailer de la película

Enlaces de descarga

Descargar Señor, dame paciencia (2017) Full 1080p Castellano
Descargar

dpeliculas

Aportes de DPeliculasHDmega la pass es:dpeliculashdmega.org Aportes de CinemaniaHD la pass es:cinemaniahdd.com
Guardado en : Castellano , Comedia

PelícuDelas relacionadas

  • The Meyerowitz Stories (2017) 1080p Latino

    2017
    The Meyerowitz Stories (2017) 1080p Latino

    0.0 1 h 52 min 2017

    Los tres hijos, ya adultos, de un arisco artista neoyorquino se enfrentan a la difícil relación que...

    Director: Noah Baumbach

    Género: Comedia

    Actores: Victor Cruz

  • Batman vs. Two-Face (2017) Full 1080p Latino

    2017
    Batman vs. Two-Face (2017) Full 1080p Latino

    0.0 1 h 12 min 2017

    En la Penitenciaría de Gotham, en presencia de Batman, Robin y el Fiscal de Distrito Harvey Dent, el...

    Director: Rick Morales

    Género: Acción

    Actores: William Shatner

  • Emoji: La película (2017) Full 1080p Latino

    2017
    Emoji: La película (2017) Full 1080p Latino

    5.0 1 h 26 min 2017

    Dentro de tu teléfono móvil existe todo un mundo secreto nunca antes visto. Oculta tras la aplicación...

    Director: Anthony Leondis

    Género: Animación

    Actores: William Townsend

  • Emoji: La película (2017) 1080p Latino

    2017
    Emoji: La película (2017) 1080p Latino

    1.0 1 h 26 min 2017

    Los protagonistas habitarán la misteriosa tierra de Textopolis, donde todos los emojis favoritos de...

    Director: Anthony Leondis

    Género: Animación

    Actores: William Townsend

Comentarios 0