Advertise here

Señales del futuro (2009) Full 1080p Latino

1.290 vistas
1 estrella2 estrellas3 estrellas4 estrellas5 estrellas (Ninguna valoración todavía)
Cargando…

Información de Señales del futuro (2009) Full 1080p Latino

Datos de la película

  • Calidad: Full 1080p
  • Audio: Español Latino AC3 5.1 BLURAY - Ingles DTS 5.1 BLURAY
  • Subtitulos: Español Latino SRT
  • Resolución: 1920X1080
  • Formato: MKV
  • Codec: H.264
  • Encoder: Dpelis
  • Mediainfo: Clic para Mostrar Datos Ver
  • Format                                   : Matroska
    Format version                           : Version 4 / Version 2
    File size                                : 4.26 GiB
    Duration                                 : 2 h 1 min
    Overall bit rate                         : 5 014 kb/s
    Movie name                               : dpeliculashdmega.org
    Encoded date                             : UTC 2017-11-09 06:20:05 / UTC 2017-11-08T07:37:55Z
    Writing application                      : mkvmerge v15.0.0 ('Duel with the Devil') 64-bit
    Writing library                          : libebml v1.3.5 + libmatroska v1.4.5 / Lavf57.7.2

    Video
    ID                                       : 1
    Format                                   : AVC
    Format/Info                              : Advanced Video Codec
    Format profile                           : [email protected]
    Format settings                          : CABAC / 4 Ref Frames
    Format settings, CABAC                   : Yes
    Format settings, RefFrames               : 4 frames
    Codec ID                                 : V_MPEG4/ISO/AVC
    Duration                                 : 2 h 1 min
    Bit rate                                 : 2 765 kb/s
    Width                                    : 1 920 pixels
    Height                                   : 1 080 pixels
    Display aspect ratio                     : 16:9
    Frame rate mode                          : Constant
    Frame rate                               : 23.976 (24000/1001) FPS
    Color space                              : YUV
    Chroma subsampling                       : 4:2:0
    Bit depth                                : 8 bits
    Scan type                                : Progressive
    Bits/(Pixel*Frame)                       : 0.056
    Stream size                              : 2.35 GiB (55%)
    Title                                    : Señales del futuro (2009) Full 1080p Latino
    Writing library                          : x264 core 148 r2708 86b7198
    Encoding settings                        : cabac=1 / ref=4 / deblock=1:0:0 / analyse=0x3:0x133 / me=esa / subme=10 / psy=1 / psy_rd=1.00:0.00 / mixed_ref=1 / me_range=24 / chroma_me=1 / trellis=2 / 8x8dct=1 / cqm=0 / deadzone=21,11 / fast_pskip=1 / chroma_qp_offset=-2 / threads=34 / lookahead_threads=5 / sliced_threads=0 / nr=0 / decimate=1 / interlaced=0 / bluray_compat=0 / constrained_intra=0 / bframes=8 / b_pyramid=2 / b_adapt=2 / b_bias=0 / direct=3 / weightb=1 / open_gop=0 / weightp=2 / keyint=240 / keyint_min=24 / scenecut=40 / intra_refresh=0 / rc_lookahead=60 / rc=crf / mbtree=1 / crf=20.0 / qcomp=0.60 / qpmin=0 / qpmax=69 / qpstep=4 / vbv_maxrate=62500 / vbv_bufsize=78125 / crf_max=0.0 / nal_hrd=none / filler=0 / ip_ratio=1.40 / aq=1:1.00
    Language                                 : English
    Default                                  : Yes
    Forced                                   : No
    Color range                              : Limited
    Color primaries                          : BT.709
    Transfer characteristics                 : BT.709
    Matrix coefficients                      : BT.709
    Statistics Tags Issue                    : mkvmerge v15.0.0 ('Duel with the Devil') 64-bit 2017-11-09 06:20:05 / mkvmerge v15.0.0 ('Duel with the Devil') 64-bit 2017-11-09 06:20:05 / UTC 2017-11-08T07:37:55Z
    FromStats_BitRate                        : 2862938
    FromStats_Duration                       : 02:01:29.282000000
    FromStats_FrameCount                     : 174768
    FromStats_StreamSize                     : 2608595842

    Audio #1
    ID                                       : 2
    Format                                   : AC-3
    Format/Info                              : Audio Coding 3
    Format settings, Endianness              : Big
    Codec ID                                 : A_AC3
    Duration                                 : 2 h 1 min
    Bit rate mode                            : Constant
    Bit rate                                 : 640 kb/s
    Channel(s)                               : 6 channels
    Channel positions                        : Front: L C R, Side: L R, LFE
    Sampling rate                            : 48.0 kHz
    Frame rate                               : 31.250 FPS (1536 SPF)
    Bit depth                                : 16 bits
    Compression mode                         : Lossy
    Stream size                              : 556 MiB (13%)
    Title                                    : Latino-AC3
    Language                                 : Spanish
    Service kind                             : Complete Main
    Default                                  : Yes
    Forced                                   : No
    Statistics Tags Issue                    : mkvmerge v15.0.0 ('Duel with the Devil') 64-bit 2017-11-09 06:20:05 / mkvmerge v15.0.0 ('Duel with the Devil') 64-bit 2017-11-09 06:20:05 / UTC 2017-11-08T07:37:55Z
    FromStats_BitRate                        : 640000
    FromStats_Duration                       : 02:01:29.312000000
    FromStats_FrameCount                     : 227791
    FromStats_StreamSize                     : 583144960

    Audio #2
    ID                                       : 3
    Format                                   : DTS
    Format/Info                              : Digital Theater Systems
    Mode                                     : 16
    Format settings, Endianness              : Big
    Codec ID                                 : A_DTS
    Duration                                 : 2 h 1 min
    Bit rate mode                            : Constant
    Bit rate                                 : 1 509 kb/s
    Channel(s)                               : 6 channels
    Channel positions                        : Front: L C R, Side: L R, LFE
    Sampling rate                            : 48.0 kHz
    Frame rate                               : 93.750 FPS (512 SPF)
    Bit depth                                : 24 bits
    Compression mode                         : Lossy
    Stream size                              : 1.28 GiB (30%)
    Title                                    : Ingles-DTS
    Language                                 : English
    Default                                  : No
    Forced                                   : No
    Statistics Tags Issue                    : mkvmerge v15.0.0 ('Duel with the Devil') 64-bit 2017-11-09 06:20:05 / mkvmerge v15.0.0 ('Duel with the Devil') 64-bit 2017-11-09 06:20:05 / UTC 2017-11-08T07:37:55Z
    FromStats_BitRate                        : 1508999
    FromStats_Duration                       : 02:01:31.371000000
    FromStats_FrameCount                     : 683566
    FromStats_StreamSize                     : 1375334792

    Text
    ID                                       : 4
    Format                                   : UTF-8
    Codec ID                                 : S_TEXT/UTF8
    Codec ID/Info                            : UTF-8 Plain Text
    Title                                    : SRT
    Language                                 : Spanish
    Default                                  : No
    Forced                                   : No
    Statistics Tags Issue                    : mkvmerge v15.0.0 ('Duel with the Devil') 64-bit 2017-11-09 06:20:05 / mkvmerge v15.0.0 ('Duel with the Devil') 64-bit 2017-11-09 06:20:05 / UTC 2017-11-08T07:37:55Z
    FromStats_BitRate                        : 37
    FromStats_Duration                       : 01:52:19.200000000
    FromStats_FrameCount                     : 897
    FromStats_StreamSize                     : 31652

    Menu
    00:00:00.000                             : :50 Years Ago
    00:08:35.098                             : :Together Forever
    00:15:20.211                             : :Opening the Time Capsule
    00:20:28.144                             : :Researching the Numbers
    00:29:06.828                             : :Lucinda Embry
    00:36:52.752                             : :Latitude Longitude
    00:43:17.011                             : :It's Not Coincidence
    00:49:04.525                             : :We Didn't Meet by Accident
    00:56:09.741                             : :Get Off the Subway
    01:02:31.039                             : :The Day I Die
    01:08:11.546                             : :Everyone Else
    01:16:17.406                             : :A Warning for Everyone
    01:22:58.098                             : :The Numbers Are the Key
    01:30:14.701                             : :This Is Not a Test
    01:39:33.509                             : :Following the Stones
    01:50:31.166                             : :They've Chosen You

  • Peso: 4.26 GiB

Sinopsis

Durante la inauguración de un nuevo colegio, los estudiantes guardan en una cápsula del tiempo varios objetos. Lucinda, una de las niñas, guarda un papel en el que ha escrito extraños números. Cincuenta años después, la cápsula del tiempo es desenterrada, el hijo de un profesor de astronomía viudo, recibe la misteriosa nota de Lucinda. John descubrirá enseguida que esos números esconden predicciones escalofriantes, algunas de las cuales ya han sucedido mientras que otras aún no.

Ficha técnica

Video trailer de la película

Enlaces de descarga

Descargar Señales del futuro (2009) Full 1080p Latino
Descargar

dpeliculas

Aportes de DPeliculasHDmega la pass es:dpeliculashdmega.org Aportes de CinemaniaHD la pass es:cinemaniahdd.com

Películas relacionadas

  • Toy Story 3 (2010) Full 1080p Latino

    2010
    Toy Story 3 (2010) Full 1080p Latino

    0.0 1 h 43 min 2010

    Sabiendo que su dueño Andy, que ya no es un niño, se prepara para ir a la universidad, el vaquero Woody,...

    Director: Mark Sanford

    Género: Animación

    Actores: Whoopi Goldberg

  • Toy Story (1995) Full 1080p Latino

    1995
    Toy Story (1995) Full 1080p Latino

    0.0 1 h 21 min 1995

    Los juguetes de Andy, un niño de 6 años, temen que haya llegado su hora y que un nuevo regalo de cumpleaños...

    Director: Roman Figun

    Género: Animación

    Actores: Wallace Shawn

  • Avatar (2009) EXTENDED Full 1080p Latino

    2009
    Avatar (2009) EXTENDED Full 1080p Latino

    0.0 2 h 58 min 2009

    Jake Sully, un ex-marine confinado a una silla de ruedas, es reclutado para viajar al planeta Pandora,...

    Director: James Cameron

    Género: Acción

    Actores: Zoe Saldana

Comentarios 4
  • editor3100 - 10 noviembre, 2017

    Buenaza la pelicula..excelente trabajo todo el equipo de dpeliiculas…..hay una pelicula genial que estoy seguro que le gusta a la mayoria de fanaticos del cine THE GIVER (EL DADOR DE RECUERDOS) no se si podrian tomar mi comentario en cuenta y evaluar la posibilidad de subirla en 1080p 🙂

    • Dpelis2 pelis2

      Autor
      - 10 noviembre, 2017

      Hola veremos mas adelante esa pelicuia, Saludos

  • Luis - 09 noviembre, 2017

    Que Buena Pelicula que se mandaron, la vi pocos dias despues de su estreno y hasta el momento quiero verla una y otra vez. Recomiendo verla es buenisima de principio a fin, La conocia con el titulo de “Presagio”

    • Dpelis2 pelis2

      Autor
      - 09 noviembre, 2017

      Hola si es una buena pelicula, Tiene varios títulos por eso se dejo este
      Saludos