Security (2017) Full 1080p Castellano

2.037 vistas
1 estrella2 estrellas3 estrellas4 estrellas5 estrellas (1 votos, promedio: 3,00 de 5)
Cargando…

Información de Security (2017) Full 1080p Castellano

Datos de la película

  • Calidad: Full 1080p
  • Audio: Español Castellano DTS 5.1 BLURAY - Ingles DTS 5.1 BLURAY
  • Subtitulos: Español PGS - Ingles PGS
  • Resolución: 1920x1080p
  • Formato: MKV
  • Codec: H.264
  • Encoder: Dpelis
  • Mediainfo: Ver Ver
  • Security (2017) Full Castellano.mkv
    Format                      : Matroska
    Format version              : Version 4 / Version 2
    File size                   : 3.88 GiB
    Duration                    : 1 h 31 min
    Overall bit rate            : 6 063 kb/s
    Movie name                  : DPeliculasHDMega.ORG
    Encoded date                : UTC 2017-09-07 03:53:28 / UTC 2017-09-06T21:28:00Z
    Writing application         : mkvmerge v10.0.0 ('To Drown In You') 64bit
    Writing library             : libebml v1.3.4 + libmatroska v1.4.5 / Lavf57.7.2

    Video
    ID                          : 1
    Format                      : AVC
    Format/Info                 : Advanced Video Codec
    Format profile              : [email protected]
    Format settings, CABAC      : Yes
    Format settings, ReFrames   : 4 frames
    Codec ID                    : V_MPEG4/ISO/AVC
    Duration                    : 1 h 31 min
    Bit rate                    : 2 925 kb/s
    Width                       : 1 920 pixels
    Height                      : 1 080 pixels
    Display aspect ratio        : 16:9
    Frame rate mode             : Constant
    Frame rate                  : 24.000 FPS
    Color space                 : YUV
    Chroma subsampling          : 4:2:0
    Bit depth                   : 8 bits
    Scan type                   : Progressive
    Bits/(Pixel*Frame)          : 0.059
    Stream size                 : 1.87 GiB (48%)
    Writing library             : x264 core 148 r2708 86b7198
    Encoding settings           : cabac=1 / ref=4 / deblock=1:0:0 / analyse=0x3:0x133 / me=esa / subme=10 / psy=1 / psy_rd=1.00:0.00 / mixed_ref=1 / me_range=24 / chroma_me=1 / trellis=2 / 8x8dct=1 / cqm=0 / deadzone=21,11 / fast_pskip=1 / chroma_qp_offset=-2 / threads=34 / lookahead_threads=5 / sliced_threads=0 / nr=0 / decimate=1 / interlaced=0 / bluray_compat=0 / constrained_intra=0 / bframes=8 / b_pyramid=2 / b_adapt=2 / b_bias=0 / direct=3 / weightb=1 / open_gop=0 / weightp=2 / keyint=240 / keyint_min=24 / scenecut=40 / intra_refresh=0 / rc_lookahead=60 / rc=crf / mbtree=1 / crf=20.0 / qcomp=0.60 / qpmin=0 / qpmax=69 / qpstep=4 / vbv_maxrate=62500 / vbv_bufsize=78125 / crf_max=0.0 / nal_hrd=none / filler=0 / ip_ratio=1.40 / aq=1:1.00
    Default                     : Yes
    Forced                      : No
    Color range                 : Limited
    Color primaries             : BT.709
    Transfer characteristics    : BT.709
    Matrix coefficients         : BT.709
    Statistics Tags Issue       : mkvmerge v10.0.0 ('To Drown In You') 64bit 2017-09-07 03:53:28 / mkvmerge v10.0.0 ('To Drown In You') 64bit 2017-09-07 03:53:28 / UTC 2017-09-06T21:28:00Z
    FromStats_BitRate           : 3026984
    FromStats_Duration          : 01:31:31.625000000
    FromStats_FrameCount        : 131799
    FromStats_StreamSize        : 2077883213

    Audio #1
    ID                          : 2
    Format                      : DTS
    Format/Info                 : Digital Theater Systems
    Mode                        : 16
    Format settings, Endianness : Big
    Codec ID                    : A_DTS
    Duration                    : 1 h 31 min
    Bit rate mode               : Constant
    Bit rate                    : 1 509 kb/s
    Channel(s)                  : 6 channels
    Channel positions           : Front: L C R, Side: L R, LFE
    Sampling rate               : 48.0 kHz
    Frame rate                  : 93.750 FPS (512 spf)
    Bit depth                   : 16 bits
    Compression mode            : Lossy
    Stream size                 : 988 MiB (25%)
    Title                       : Surround
    Language                    : Spanish
    Default                     : Yes
    Forced                      : No
    Statistics Tags Issue       : mkvmerge v10.0.0 ('To Drown In You') 64bit 2017-09-07 03:53:28 / mkvmerge v10.0.0 ('To Drown In You') 64bit 2017-09-07 03:53:28 / UTC 2017-09-06T21:28:00Z
    FromStats_BitRate           : 1508999
    FromStats_Duration          : 01:31:31.627000000
    FromStats_FrameCount        : 514840
    FromStats_StreamSize        : 1035858080

    Audio #2
    ID                          : 3
    Format                      : DTS
    Format/Info                 : Digital Theater Systems
    Mode                        : 16
    Format settings, Endianness : Big
    Codec ID                    : A_DTS
    Duration                    : 1 h 31 min
    Bit rate mode               : Constant
    Bit rate                    : 1 509 kb/s
    Channel(s)                  : 6 channels
    Channel positions           : Front: L C R, Side: L R, LFE
    Sampling rate               : 48.0 kHz
    Frame rate                  : 93.750 FPS (512 spf)
    Bit depth                   : 16 bits
    Compression mode            : Lossy
    Stream size                 : 988 MiB (25%)
    Title                       : Surround
    Language                    : English
    Default                     : No
    Forced                      : No
    Statistics Tags Issue       : mkvmerge v10.0.0 ('To Drown In You') 64bit 2017-09-07 03:53:28 / mkvmerge v10.0.0 ('To Drown In You') 64bit 2017-09-07 03:53:28 / UTC 2017-09-06T21:28:00Z
    FromStats_BitRate           : 1508999
    FromStats_Duration          : 01:31:31.627000000
    FromStats_FrameCount        : 514840
    FromStats_StreamSize        : 1035858080

    Text #1
    ID                          : 4
    Format                      : PGS
    Muxing mode                 : zlib
    Codec ID                    : S_HDMV/PGS
    Codec ID/Info               : Picture based subtitle format used on BDs/HD-DVDs
    Language                    : Spanish
    Default                     : No
    Forced                      : No
    Statistics Tags Issue       : mkvmerge v10.0.0 ('To Drown In You') 64bit 2017-09-07 03:53:28 / mkvmerge v10.0.0 ('To Drown In You') 64bit 2017-09-07 03:53:28 / UTC 2017-09-06T21:28:00Z
    FromStats_BitRate           : 15541
    FromStats_Duration          : 01:30:27.083000000
    FromStats_FrameCount        : 1994
    FromStats_StreamSize        : 10543097

    Text #2
    ID                          : 5
    Format                      : PGS
    Muxing mode                 : zlib
    Codec ID                    : S_HDMV/PGS
    Codec ID/Info               : Picture based subtitle format used on BDs/HD-DVDs
    Language                    : Spanish
    Default                     : No
    Forced                      : No
    Statistics Tags Issue       : mkvmerge v10.0.0 ('To Drown In You') 64bit 2017-09-07 03:53:28 / mkvmerge v10.0.0 ('To Drown In You') 64bit 2017-09-07 03:53:28 / UTC 2017-09-06T21:28:00Z
    FromStats_BitRate           : 14730
    FromStats_Duration          : 00:00:00.208000000
    FromStats_FrameCount        : 2
    FromStats_StreamSize        : 383

    Menu
    00:00:00.000                : :Chapter 1
    00:11:46.167                : :Chapter 2
    00:22:27.042                : :Chapter 3
    00:33:16.083                : :Chapter 4
    00:45:08.458                : :Chapter 5
    00:56:36.208                : :Chapter 6
    01:08:03.125                : :Chapter 7
    01:20:07.000                : :Chapter 8

  • Peso: 3.88 GB

Sinopsis

Descargar Security 1080p, Una pelicula de accion, de vietnam Un exsoldado que trabaja como guardia de seguridad debe proteger a una niña de 11 años que corre un grave peligro. La muchacha ha sido testigo de un asesinato y por eso se ha convertido en el blanco de unos peligrosos delincuentes.

Ficha técnica

Imágenes, Capturas de la película

Video trailer de la película

Enlaces de descarga

Descargar Security (2017) Full 1080p Castellano
Descargar

dpeliculas

Aportes de DPeliculasHDmega la pass es:dpeliculashdmega.org Aportes de CinemaniaHD la pass es:cinemaniahdd.com

PelícuDelas relacionadas

  • La momia (2017) 3D OU 1080p Latino

    2017
    La momia (2017) 3D OU 1080p Latino

    0.0 1h 50m 2017

    Descargar gratis La momia (2017) 3D OU 1080p Latino. A pesar de estar enterrada en una tumba en lo más...

    Director: Jo Beckett

    Género: 3D Half OU

    Actores: Vera Chok

  • Dragon Ball Super (2015) Full 1080p Latino

    2015
    Dragon Ball Super (2015) Full 1080p Latino

    4.1 0h 24m 2015

    Si eres un seguidor de la serie Dragon ball super latino, entonces ahora puedes disfrutar de esta maravillosa...

    Director: Akira Toriyama

    Género: Anime

    Actores: Naoki Tatsuta

  • Magnolia (1999) Full 1080p Latino

    1999
    Magnolia (1999) Full 1080p Latino

    0.0 3h 8m 1999

    La película consta de nueve tramas paralelas que tienen lugar en el Valle de San Fernando, en Los Angeles:...

    Director: Valeria Migliassi Collins

    Género: Drama

    Actores: William H. Macy

Comentarios 18
  • Claus - 11 septiembre, 2017

    Castellano nooooo,….¿cuando latino?

    • dpelis

      Administrador
      - 13 septiembre, 2017

      cuando hagan doblaje

  • Victor - 11 septiembre, 2017

    Saldra el audio latino para esta pelicula? O solo tiene castellano? Saludos 😀

    • dpelis

      Administrador
      - 13 septiembre, 2017

      ni idea estimado si saldra.

  • andres - 11 septiembre, 2017

    no me deja descargar por mega sale pagina para descargar megasync y ya lo tengo, ayuda por favor y gracias!!!

  • Brian Guillen - 08 septiembre, 2017

    hola podes poner los subitulos srt como lo haces en varias peliculas

    • dpelis

      Administrador
      - 08 septiembre, 2017

      no hay en la red, y ripear sub no puedo. 🙁

      • Brian - 09 septiembre, 2017

        En una pagina que se llame cuando apretas el mouse, esta esa pelicula subtitulada, como hicieron ahi? saludos

        • dpelis

          Administrador
          - 09 septiembre, 2017

          no entendi nada

          • Brian - 09 septiembre, 2017

            Mi hermano baja de un solo clic y *************, no sabia si se podia decir paginas. Y trae los subtitulos en español en ambas paginas

            • dpelis

              Administrador
              - 10 septiembre, 2017

              entiendo. y que quiere que haga yo? ademas solo son web con contenido de segunda mano.

              • Brian - 10 septiembre, 2017

                Hola, veo que sos muy suceptible a todo, solo que le pusieras los sub srt, siendo que si en esa pagina pueden, es por que se podra. Es mas facil que me digas que no tenes ganas de sincronizarlos y ta, ya que subtitulos hay

                • dpelis

                  Administrador
                  - 10 septiembre, 2017

                  la verdad usted es un usuario exigente, usted quiere todo, se le hace mas facil descargar donde este el material bueno para usted, y sino esta como lo quiere puede buscar tutoriales, no todo siempre se obtiene lo que uno quiere. Saludos

  • rimy - 08 septiembre, 2017

    tengo problemas para descargar Google Drive en todos los gestores de descarga alguien tiene ese problema o el problema es general

    • dpelis

      Administrador
      - 08 septiembre, 2017

      que problema?

  • DidierOlivaresLiberona - 08 septiembre, 2017

    Los subtitulos por fa

    • dpelis

      Administrador
      - 08 septiembre, 2017

      ahi estan en la pelicula. son PGS