Savage Dog (2017) 1080p Latino

1.523 vistas
1 estrella2 estrellas3 estrellas4 estrellas5 estrellas (1 votos, promedio: 1,00 de 5)
Cargando…

Información de Savage Dog (2017) 1080p Latino

Datos de la película

  • Calidad: 1080p
  • Audio: Español Latino AC3 2.0 iTUNES - Ingles AC3 5.1 BLURAY
  • Subtitulos: Español Latino SRT - Ingles SRT
  • Resolución: 1920x808p
  • Formato: MKV
  • Codec: H.264
  • Encoder: Dpelis
  • Mediainfo: Ver Ver
  • Savage.dog.2017.1080p.Latino.mkv
    Format                      : Matroska
    Format version              : Version 4 / Version 2
    File size                   : 2.63 GiB
    Duration                    : 1 h 34 min
    Overall bit rate            : 3 992 kb/s
    Movie name                  : DPeliculasHDMega.ORG
    Encoded date                : UTC 2017-08-02 04:17:11 / UTC 2017-08-01T04:13:16Z
    Writing application         : mkvmerge v10.0.0 ('To Drown In You') 64bit
    Writing library             : libebml v1.3.4 + libmatroska v1.4.5 / Lavf57.7.2

    Video
    ID                          : 1
    Format                      : AVC
    Format/Info                 : Advanced Video Codec
    Format profile              : [email protected]
    Format settings, CABAC      : Yes
    Format settings, ReFrames   : 4 frames
    Codec ID                    : V_MPEG4/ISO/AVC
    Duration                    : 1 h 34 min
    Bit rate                    : 3 500 kb/s
    Width                       : 1 920 pixels
    Height                      : 868 pixels
    Display aspect ratio        : 2.2:1
    Frame rate mode             : Constant
    Frame rate                  : 23.976 (24000/1001) FPS
    Color space                 : YUV
    Chroma subsampling          : 4:2:0
    Bit depth                   : 8 bits
    Scan type                   : Progressive
    Bits/(Pixel*Frame)          : 0.088
    Stream size                 : 2.20 GiB (84%)
    Writing library             : x264 core 148 r2708 86b7198
    Encoding settings           : cabac=1 / ref=3 / deblock=1:0:0 / analyse=0x3:0x113 / me=hex / subme=7 / psy=1 / psy_rd=1.00:0.00 / mixed_ref=1 / me_range=16 / chroma_me=1 / trellis=1 / 8x8dct=1 / cqm=0 / deadzone=21,11 / fast_pskip=1 / chroma_qp_offset=-2 / threads=27 / lookahead_threads=4 / sliced_threads=0 / nr=0 / decimate=1 / interlaced=0 / bluray_compat=0 / constrained_intra=0 / bframes=3 / b_pyramid=2 / b_adapt=1 / b_bias=0 / direct=1 / weightb=1 / open_gop=0 / weightp=2 / keyint=240 / keyint_min=24 / scenecut=40 / intra_refresh=0 / rc_lookahead=40 / rc=abr / mbtree=1 / bitrate=3500 / ratetol=1.0 / qcomp=0.60 / qpmin=0 / qpmax=69 / qpstep=4 / vbv_maxrate=62500 / vbv_bufsize=78125 / nal_hrd=none / filler=0 / ip_ratio=1.40 / aq=1:1.00
    Default                     : Yes
    Forced                      : No
    Color range                 : Limited
    Color primaries             : BT.709
    Transfer characteristics    : BT.709
    Matrix coefficients         : BT.709
    Statistics Tags Issue       : mkvmerge v10.0.0 ('To Drown In You') 64bit 2017-08-02 04:17:11 / mkvmerge v10.0.0 ('To Drown In You') 64bit 2017-08-02 04:17:11 / UTC 2017-08-01T04:13:16Z
    FromStats_BitRate           : 3413623
    FromStats_Duration          : 01:34:15.692000000
    FromStats_FrameCount        : 135601
    FromStats_StreamSize        : 2413300359

    Audio #1
    ID                          : 2
    Format                      : AC-3
    Format/Info                 : Audio Coding 3
    Format settings, Endianness : Big
    Codec ID                    : A_AC3
    Duration                    : 1 h 34 min
    Bit rate mode               : Constant
    Bit rate                    : 192 kb/s
    Channel(s)                  : 2 channels
    Channel positions           : Front: L R
    Sampling rate               : 48.0 kHz
    Frame rate                  : 31.250 FPS (1536 spf)
    Bit depth                   : 16 bits
    Compression mode            : Lossy
    Delay relative to video     : -5 ms
    Stream size                 : 129 MiB (5%)
    Language                    : Spanish
    Service kind                : Complete Main
    Default                     : Yes
    Forced                      : No
    Statistics Tags Issue       : mkvmerge v10.0.0 ('To Drown In You') 64bit 2017-08-02 04:17:11 / mkvmerge v10.0.0 ('To Drown In You') 64bit 2017-08-02 04:17:11 / UTC 2017-08-01T04:13:16Z
    FromStats_BitRate           : 192000
    FromStats_Duration          : 01:34:15.712000000
    FromStats_FrameCount        : 176741
    FromStats_StreamSize        : 135737088

    Audio #2
    ID                          : 3
    Format                      : AC-3
    Format/Info                 : Audio Coding 3
    Format settings, Endianness : Big
    Codec ID                    : A_AC3
    Duration                    : 1 h 34 min
    Bit rate mode               : Constant
    Bit rate                    : 384 kb/s
    Channel(s)                  : 6 channels
    Channel positions           : Front: L C R, Side: L R, LFE
    Sampling rate               : 48.0 kHz
    Frame rate                  : 31.250 FPS (1536 spf)
    Bit depth                   : 16 bits
    Compression mode            : Lossy
    Delay relative to video     : -5 ms
    Stream size                 : 259 MiB (10%)
    Title                       : Surround
    Language                    : English
    Service kind                : Complete Main
    Default                     : No
    Forced                      : No
    Statistics Tags Issue       : mkvmerge v10.0.0 ('To Drown In You') 64bit 2017-08-02 04:17:11 / mkvmerge v10.0.0 ('To Drown In You') 64bit 2017-08-02 04:17:11 / UTC 2017-08-01T04:13:16Z
    FromStats_BitRate           : 384000
    FromStats_Duration          : 01:34:15.712000000
    FromStats_FrameCount        : 176741
    FromStats_StreamSize        : 271474176

    Text #1
    ID                          : 4
    Format                      : UTF-8
    Codec ID                    : S_TEXT/UTF8
    Codec ID/Info               : UTF-8 Plain Text
    Language                    : Spanish
    Default                     : Yes
    Forced                      : No
    Statistics Tags Issue       : mkvmerge v10.0.0 ('To Drown In You') 64bit 2017-08-02 04:17:11 / mkvmerge v10.0.0 ('To Drown In You') 64bit 2017-08-02 04:17:11 / UTC 2017-08-01T04:13:16Z
    FromStats_BitRate           : 35
    FromStats_Duration          : 01:30:53.899000000
    FromStats_FrameCount        : 694
    FromStats_StreamSize        : 24097

    Text #2
    ID                          : 5
    Format                      : UTF-8
    Codec ID                    : S_TEXT/UTF8
    Codec ID/Info               : UTF-8 Plain Text
    Language                    : English
    Default                     : No
    Forced                      : No
    Statistics Tags Issue       : mkvmerge v10.0.0 ('To Drown In You') 64bit 2017-08-02 04:17:11 / mkvmerge v10.0.0 ('To Drown In You') 64bit 2017-08-02 04:17:11 / UTC 2017-08-01T04:13:16Z
    FromStats_BitRate           : 31
    FromStats_Duration          : 01:30:19.751000000
    FromStats_FrameCount        : 688
    FromStats_StreamSize        : 21472

    Menu
    00:00:00.000                : :00:00:00.000
    00:01:33.969                : :00:01:33.969
    00:08:02.232                : :00:08:02.107
    00:15:08.032                : :00:15:07.949
    00:23:52.264                : :00:23:52.222
    00:36:38.697                : :00:36:38.613
    00:48:27.696                : :00:48:27.696
    01:00:42.556                : :01:00:42.556
    01:10:34.814                : :01:10:34.689
    01:16:46.060                : :01:16:46.018
    01:21:51.907                : :01:21:51.907
    01:30:16.536                : :01:30:16.411

  • Peso: 2.63 GB

Sinopsis

Una historia ambientada en Indochina en 1959, una tierra más allá de la regla y un tiempo sin piedad, y el nacimiento de una leyenda.

Nota. El audio fue adaptado para Savage Dog con censura, nuestro staff para esta versión, como paso con rápido y furioso 8 extended, pero muchas web se llevan los audios a sus web, según hacen creer que son editados por ellos.

Ficha técnica

  • Titulo original: Savage Dog
  • Fecha de lanzamiento: 04-08-2017 (United States of America)
  • Director: Jesse V. Johnson
  • Género: Acción
  • Puntuación: 1.0 1 votos
  • Duración:
    1h 34m

Imágenes, Capturas de la película

Video trailer de la película

Enlaces de descarga

Descargar Savage Dog (2017) 1080p Latino
Descargar

dpeliculas

Aportes de DPeliculasHDmega la pass es:dpeliculashdmega.org Aportes de CinemaniaHD la pass es:cinemaniahdd.com
Guardado en : Acción

PelícuDelas relacionadas

Comentarios 5
  • alberto - 03 Agosto, 2017

    Lo sentimos, no puedes ver ni descargar este archivo en este momento.

    Existen demasiados usuarios que visualizaron o descargaron este archivo recientemente. Intenta acceder nuevamente más tarde. Si el archivo al que intentas acceder es particularmente grande o está siendo compartido por muchas personas, es posible que demores hasta 24 horas para poder verlo o descargarlo. Si después de 24 horas aún no puedes acceder al archivo, comunícate con tu administrador de dominio.

    • dpelis

      Administrador
      - 03 Agosto, 2017

      y luego? reclamos que no subimos bien los archivos que estan danados y les toca que volver a descargar, si gusta puede comprar memmbresia premium en 1fichier x 10 euros por 12 meses. y fin a los problemas

    • Slash - 03 Agosto, 2017

      Usted no sé preocupe, pruebe descargar después de las 9 pm (esto en caso de que este saturado Google drive), por lo regular se recupera y se puede volver a descargar. También le comento que nunca aplica las 24 horas, después de unas horas puede volver a descargar, también le recomiendo usar un gestor de descargas como Jdownloader, cree una cuenta free en Google, enlace con el gestor de descargas, y así le puede descargar por más tiempo.

  • slash - 02 Agosto, 2017

    Gracias por subir pelis de Scott Adkins (su genero son las artes marciales), y por boyka Undisputed 4 donde también sale, ¿tendremos plateada de esta película?

    • dpelis

      Administrador
      - 02 Agosto, 2017

      aba plateada