Satanic (2016) Full Latino

1.241 vistas
1 estrella2 estrellas3 estrellas4 estrellas5 estrellas (Ninguna valoración todavía)
Cargando…

Información de Satanic (2016) Full Latino

Datos de la película

  • Calidad: Full 1080p
  • Audio: Español Latino AC3 5.1 DVD - Ingles AC3 5.1 BLURAY
  • Subtitulos: Español Latino PGS - Ingles PGS
  • Resolución: 1920x1080p
  • Formato: MKV
  • Codec: H.264
  • Encoder: Dpelis
  • Mediainfo: Ver Ver
  • Satanic.2016.Full.1080p.LATINO.mkv
    Format                      : Matroska
    Format version              : Version 4 / Version 2
    File size                   : 3.19 GiB
    Duration                    : 1 h 24 min
    Overall bit rate            : 5 416 kb/s
    Movie name                  : DPeliculasHDMega.ORG
    Encoded date                : UTC 2017-06-12 01:51:15 / UTC 2017-06-11T14:28:26Z
    Writing application         : mkvmerge v10.0.0 ('To Drown In You') 64bit
    Writing library             : libebml v1.3.4 + libmatroska v1.4.5 / Lavf57.7.2

    Video
    ID                          : 1
    Format                      : AVC
    Format/Info                 : Advanced Video Codec
    Format profile              : [email protected]
    Format settings, CABAC      : Yes
    Format settings, ReFrames   : 4 frames
    Codec ID                    : V_MPEG4/ISO/AVC
    Duration                    : 1 h 24 min
    Bit rate                    : 3 351 kb/s
    Width                       : 1 920 pixels
    Height                      : 1 080 pixels
    Display aspect ratio        : 16:9
    Frame rate mode             : Constant
    Frame rate                  : 23.976 (24000/1001) FPS
    Color space                 : YUV
    Chroma subsampling          : 4:2:0
    Bit depth                   : 8 bits
    Scan type                   : Progressive
    Bits/(Pixel*Frame)          : 0.067
    Stream size                 : 1.97 GiB (62%)
    Writing library             : x264 core 148 r2708 86b7198
    Encoding settings           : cabac=1 / ref=4 / deblock=1:0:0 / analyse=0x3:0x133 / me=esa / subme=10 / psy=1 / psy_rd=1.00:0.00 / mixed_ref=1 / me_range=24 / chroma_me=1 / trellis=2 / 8x8dct=1 / cqm=0 / deadzone=21,11 / fast_pskip=1 / chroma_qp_offset=-2 / threads=34 / lookahead_threads=5 / sliced_threads=0 / nr=0 / decimate=1 / interlaced=0 / bluray_compat=0 / constrained_intra=0 / bframes=8 / b_pyramid=2 / b_adapt=2 / b_bias=0 / direct=3 / weightb=1 / open_gop=0 / weightp=2 / keyint=240 / keyint_min=24 / scenecut=40 / intra_refresh=0 / rc_lookahead=60 / rc=crf / mbtree=1 / crf=20.0 / qcomp=0.60 / qpmin=0 / qpmax=69 / qpstep=4 / vbv_maxrate=62500 / vbv_bufsize=78125 / crf_max=0.0 / nal_hrd=none / filler=0 / ip_ratio=1.40 / aq=1:1.00
    Default                     : Yes
    Forced                      : No
    Color range                 : Limited
    Color primaries             : BT.709
    Transfer characteristics    : BT.709
    Matrix coefficients         : BT.709
    Statistics Tags Issue       : mkvmerge v10.0.0 ('To Drown In You') 64bit 2017-06-12 01:51:15 / mkvmerge v10.0.0 ('To Drown In You') 64bit 2017-06-12 01:51:15 / UTC 2017-06-11T14:28:26Z
    FromStats_BitRate           : 3408886
    FromStats_Duration          : 01:24:16.594000000
    FromStats_FrameCount        : 121237
    FromStats_StreamSize        : 2154669574

    Audio #1
    ID                          : 2
    Format                      : AC-3
    Format/Info                 : Audio Coding 3
    Format settings, Endianness : Big
    Codec ID                    : A_AC3
    Duration                    : 1 h 24 min
    Bit rate mode               : Constant
    Bit rate                    : 448 kb/s
    Channel(s)                  : 6 channels
    Channel positions           : Front: L C R, Side: L R, LFE
    Sampling rate               : 48.0 kHz
    Frame rate                  : 31.250 FPS (1536 spf)
    Bit depth                   : 16 bits
    Compression mode            : Lossy
    Stream size                 : 270 MiB (8%)
    Language                    : Spanish
    Service kind                : Complete Main
    Default                     : Yes
    Forced                      : No
    Statistics Tags Issue       : mkvmerge v10.0.0 ('To Drown In You') 64bit 2017-06-12 01:51:15 / mkvmerge v10.0.0 ('To Drown In You') 64bit 2017-06-12 01:51:15 / UTC 2017-06-11T14:28:26Z
    FromStats_BitRate           : 448000
    FromStats_Duration          : 01:24:19.232000000
    FromStats_FrameCount        : 158101
    FromStats_StreamSize        : 283316992

    Audio #2
    ID                          : 3
    Format                      : DTS
    Format/Info                 : Digital Theater Systems
    Mode                        : 16
    Format settings, Endianness : Big
    Codec ID                    : A_DTS
    Duration                    : 1 h 24 min
    Bit rate mode               : Constant
    Bit rate                    : 1 509 kb/s
    Channel(s)                  : 6 channels
    Channel positions           : Front: L C R, Side: L R, LFE
    Sampling rate               : 48.0 kHz
    Frame rate                  : 93.750 FPS (512 spf)
    Bit depth                   : 24 bits
    Compression mode            : Lossy
    Stream size                 : 910 MiB (28%)
    Title                       : Surround
    Language                    : English
    Default                     : No
    Forced                      : No
    Statistics Tags Issue       : mkvmerge v10.0.0 ('To Drown In You') 64bit 2017-06-12 01:51:15 / mkvmerge v10.0.0 ('To Drown In You') 64bit 2017-06-12 01:51:15 / UTC 2017-06-11T14:28:26Z
    FromStats_BitRate           : 1508999
    FromStats_Duration          : 01:24:16.630000000
    FromStats_FrameCount        : 474059
    FromStats_StreamSize        : 953806708

    Text #1
    ID                          : 4
    Format                      : PGS
    Muxing mode                 : zlib
    Codec ID                    : S_HDMV/PGS
    Codec ID/Info               : Picture based subtitle format used on BDs/HD-DVDs
    Language                    : Spanish
    Default                     : No
    Forced                      : No
    Statistics Tags Issue       : mkvmerge v10.0.0 ('To Drown In You') 64bit 2017-06-12 01:51:15 / mkvmerge v10.0.0 ('To Drown In You') 64bit 2017-06-12 01:51:15 / UTC 2017-06-11T14:28:26Z
    FromStats_BitRate           : 23210
    FromStats_Duration          : 01:18:24.283000000
    FromStats_FrameCount        : 1964
    FromStats_StreamSize        : 13648392

    Text #2
    ID                          : 5
    Format                      : PGS
    Muxing mode                 : zlib
    Codec ID                    : S_HDMV/PGS
    Codec ID/Info               : Picture based subtitle format used on BDs/HD-DVDs
    Language                    : English
    Default                     : No
    Forced                      : No
    Statistics Tags Issue       : mkvmerge v10.0.0 ('To Drown In You') 64bit 2017-06-12 01:51:15 / mkvmerge v10.0.0 ('To Drown In You') 64bit 2017-06-12 01:51:15 / UTC 2017-06-11T14:28:26Z
    FromStats_BitRate           : 29112
    FromStats_Duration          : 01:21:36.058000000
    FromStats_FrameCount        : 2281
    FromStats_StreamSize        : 17816960

    Text #3
    ID                          : 6
    Format                      : UTF-8
    Codec ID                    : S_TEXT/UTF8
    Codec ID/Info               : UTF-8 Plain Text
    Language                    : Spanish
    Default                     : Yes
    Forced                      : No
    Statistics Tags Issue       : mkvmerge v10.0.0 ('To Drown In You') 64bit 2017-06-12 01:51:15 / mkvmerge v10.0.0 ('To Drown In You') 64bit 2017-06-12 01:51:15 / UTC 2017-06-11T14:28:26Z
    FromStats_BitRate           : 45
    FromStats_Duration          : 00:00:20.100000000
    FromStats_FrameCount        : 1
    FromStats_StreamSize        : 115

    Menu
    00:00:00.000                : :Chapter 1
    00:07:12.057                : :Chapter 2
    00:20:18.676                : :Chapter 3
    00:29:50.122                : :Chapter 4
    00:35:31.129                : :Chapter 5
    00:39:29.576                : :Chapter 6
    00:47:53.996                : :Chapter 7
    00:54:33.312                : :Chapter 8
    01:03:39.232                : :Chapter 9
    01:08:26.936                : :Chapter 10
    01:17:17.550                : :Chapter 11
    01:20:29.199                : :Chapter 12

  • Peso: 3.19 GB

Sinopsis

Cuatro universitarios que se dirigen en furgoneta a Coachella se detienen en Los Ángeles para visitar sitios donde se cometieron crímenes satánicos. Cuando siguen al espeluznante propietario de una tienda de ocultismo, se encuentran con una chica en apariencia víctima de un sacrificio humano. Pronto descubrirán que la “víctima” resulta ser mucho más peligrosa que el culto del que escapó.

Ficha técnica

  • Titulo original: Satanic
  • Fecha de lanzamiento: 01-07-2016 (United States of America)
  • Director: Jeffrey G. Hunt
  • Género: Terror
  • Puntuación: 0.0 0 votos
  • Duración:
    1h 25m

Imágenes, Capturas de la película

Video trailer de la película

Enlaces de descarga

Descargar Satanic (2016) Full Latino
Descargar

dpeliculas

Aportes de DPeliculasHDmega la pass es:dpeliculashdmega.org Aportes de CinemaniaHD la pass es:cinemaniahdd.com
Guardado en : Terror

PelícuDelas relacionadas

  • A 47 metros (2017) WEBDL 1080p Subtitulada

    2017
    A 47 metros (2017) WEBDL 1080p Subtitulada

    3.0 1h 27m 2017

    Descargar 47 Metros una pelicula de Terror Durante una inmersión, dos hermanas de vacaciones en México...

    Director: Johannes Roberts

    Género: Suspense

    Actores: Yani Gellman

  • Little Evil (2017) 1080p WEB-DL Latino

    2017
    Little Evil (2017) 1080p WEB-DL Latino

    4.5 0h 0m 2017

    Descargar gratis Little Evil (2017) 1080p WEB-DL Latino. Gary, que acba de casarse con Samantha, la...

    Director: Eli Craig

    Género: Comedia

    Actores: Tyler Labine

  • Dead Again in Tombstone (2017) 1080p Latino

    2017
    Dead Again in Tombstone (2017) 1080p Latino

    0.0 1h 39m 2017

    Guerrero (Danny Trejo, Machete) regresa de los muertos otra vez en este western lleno de acción que...

    Director: Roel Reiné

    Género: Acción

    Actores: Peter Skagen

  • Jason X (2001) Full Latino

    2001
    Jason X (2001) Full Latino

    5.0 1h 31m 2001

    Descargar gratis Jason X (2001) Ful Latino Mega. En el año 2445, la Tierra es un lugar contaminado al...

    Director: James Isaac

    Género: Ciencia ficción

    Actores: Todd Farmer

Comentarios 2
  • jose bolaños - 13 junio, 2017

    que paso con los link de mega estan caidos

    • dpelis

      Administrador
      - 13 junio, 2017

      links vivos. ya vio como descargar de mega? si es asi. entonces creo q consumio limte de mega. y los enlaces dan error. tiene que esperar para q quite el limte, oh bien cambiar ip.
      saludos