Advertise here

Salvar al soldado Ryan (1998) Full 1080p Latino

981 vistas
1 estrella2 estrellas3 estrellas4 estrellas5 estrellas (Ninguna valoración todavía)
Cargando…

Información de Salvar al soldado Ryan (1998) Full 1080p Latino

Datos de la película

  • Calidad: Full 1080p
  • Audio: Español Latino AC3 5.1 BLURAY - Ingles DTS 5.1 BLURAY
  • Subtitulos: Español Latino PGS - Ingles PGS
  • Resolución: 1920X1080
  • Formato: MKV
  • Codec: H.264
  • Encoder: Dpelis
  • Mediainfo: Clic para Mostrar Datos Ver
  • Format                                   : Matroska
    Format version                           : Version 4 / Version 2
    File size                                : 26.3 GiB
    Duration                                 : 2 h 48 min
    Overall bit rate                         : 22.4 Mb/s
    Movie name                               : dpeliculashdmega.org
    Encoded date                             : UTC 2017-11-06 04:26:08 / UTC 2017-11-05T04:44:12Z
    Writing application                      : mkvmerge v15.0.0 ('Duel with the Devil') 64-bit
    Writing library                          : libebml v1.3.5 + libmatroska v1.4.5 / Lavf57.7.2

    Video
    ID                                       : 1
    Format                                   : AVC
    Format/Info                              : Advanced Video Codec
    Format profile                           : [email protected]
    Format settings                          : CABAC / 4 Ref Frames
    Format settings, CABAC                   : Yes
    Format settings, RefFrames               : 4 frames
    Codec ID                                 : V_MPEG4/ISO/AVC
    Duration                                 : 2 h 48 min
    Bit rate                                 : 19.8 Mb/s
    Width                                    : 1 920 pixels
    Height                                   : 1 080 pixels
    Display aspect ratio                     : 16:9
    Frame rate mode                          : Constant
    Frame rate                               : 23.976 (24000/1001) FPS
    Color space                              : YUV
    Chroma subsampling                       : 4:2:0
    Bit depth                                : 8 bits
    Scan type                                : Progressive
    Bits/(Pixel*Frame)                       : 0.397
    Stream size                              : 23.2 GiB (88%)
    Title                                    : Salvar al soldado Ryan (1998) Full 1080p Latino
    Writing library                          : x264 core 148 r2708 86b7198
    Encoding settings                        : cabac=1 / ref=4 / deblock=1:0:0 / analyse=0x3:0x133 / me=esa / subme=10 / psy=1 / psy_rd=1.00:0.00 / mixed_ref=1 / me_range=24 / chroma_me=1 / trellis=2 / 8x8dct=1 / cqm=0 / deadzone=21,11 / fast_pskip=1 / chroma_qp_offset=-2 / threads=34 / lookahead_threads=5 / sliced_threads=0 / nr=0 / decimate=1 / interlaced=0 / bluray_compat=0 / constrained_intra=0 / bframes=8 / b_pyramid=2 / b_adapt=2 / b_bias=0 / direct=3 / weightb=1 / open_gop=0 / weightp=2 / keyint=240 / keyint_min=24 / scenecut=40 / intra_refresh=0 / rc_lookahead=60 / rc=crf / mbtree=1 / crf=20.0 / qcomp=0.60 / qpmin=0 / qpmax=69 / qpstep=4 / vbv_maxrate=62500 / vbv_bufsize=78125 / crf_max=0.0 / nal_hrd=none / filler=0 / ip_ratio=1.40 / aq=1:1.00
    Language                                 : English
    Default                                  : Yes
    Forced                                   : No
    Color range                              : Limited
    Color primaries                          : BT.709
    Transfer characteristics                 : BT.709
    Matrix coefficients                      : BT.709
    Statistics Tags Issue                    : mkvmerge v15.0.0 ('Duel with the Devil') 64-bit 2017-11-06 04:26:08 / mkvmerge v15.0.0 ('Duel with the Devil') 64-bit 2017-11-06 04:26:08 / UTC 2017-11-05T04:44:12Z
    FromStats_BitRate                        : 20184497
    FromStats_Duration                       : 02:48:21.091000000
    FromStats_FrameCount                     : 242184
    FromStats_StreamSize                     : 25485680504

    Audio #1
    ID                                       : 2
    Format                                   : AC-3
    Format/Info                              : Audio Coding 3
    Format settings, Endianness              : Big
    Codec ID                                 : A_AC3
    Duration                                 : 2 h 48 min
    Bit rate mode                            : Constant
    Bit rate                                 : 640 kb/s
    Channel(s)                               : 6 channels
    Channel positions                        : Front: L C R, Side: L R, LFE
    Sampling rate                            : 48.0 kHz
    Frame rate                               : 31.250 FPS (1536 SPF)
    Bit depth                                : 16 bits
    Compression mode                         : Lossy
    Stream size                              : 771 MiB (3%)
    Title                                    : Latino-AC3
    Language                                 : Spanish
    Service kind                             : Complete Main
    Default                                  : Yes
    Forced                                   : No
    Statistics Tags Issue                    : mkvmerge v15.0.0 ('Duel with the Devil') 64-bit 2017-11-06 04:26:08 / mkvmerge v15.0.0 ('Duel with the Devil') 64-bit 2017-11-06 04:26:08 / UTC 2017-11-05T04:44:12Z
    FromStats_BitRate                        : 640000
    FromStats_Duration                       : 02:48:21.120000000
    FromStats_FrameCount                     : 315660
    FromStats_StreamSize                     : 808089600

    Audio #2
    ID                                       : 3
    Format                                   : DTS
    Format/Info                              : Digital Theater Systems
    Mode                                     : 16
    Format settings, Endianness              : Big
    Codec ID                                 : A_DTS
    Duration                                 : 2 h 48 min
    Bit rate mode                            : Constant
    Bit rate                                 : 1 509 kb/s
    Channel(s)                               : 6 channels
    Channel positions                        : Front: L C R, Side: L R, LFE
    Sampling rate                            : 48.0 kHz
    Frame rate                               : 93.750 FPS (512 SPF)
    Bit depth                                : 24 bits
    Compression mode                         : Lossy
    Stream size                              : 1.77 GiB (7%)
    Title                                    : Ingles-DTS
    Language                                 : English
    Default                                  : No
    Forced                                   : No
    Statistics Tags Issue                    : mkvmerge v15.0.0 ('Duel with the Devil') 64-bit 2017-11-06 04:26:08 / mkvmerge v15.0.0 ('Duel with the Devil') 64-bit 2017-11-06 04:26:08 / UTC 2017-11-05T04:44:12Z
    FromStats_BitRate                        : 1509000
    FromStats_Duration                       : 02:48:21.088000000
    FromStats_FrameCount                     : 946977
    FromStats_StreamSize                     : 1905317724

    Text #1
    ID                                       : 4
    Format                                   : PGS
    Muxing mode                              : zlib
    Codec ID                                 : S_HDMV/PGS
    Codec ID/Info                            : Picture based subtitle format used on BDs/HD-DVDs
    Language                                 : Spanish
    Default                                  : No
    Forced                                   : No
    Statistics Tags Issue                    : mkvmerge v15.0.0 ('Duel with the Devil') 64-bit 2017-11-06 04:26:08 / mkvmerge v15.0.0 ('Duel with the Devil') 64-bit 2017-11-06 04:26:08 / UTC 2017-11-05T04:44:12Z
    FromStats_BitRate                        : 26135
    FromStats_Duration                       : 02:40:03.510000000
    FromStats_FrameCount                     : 2913
    FromStats_StreamSize                     : 31373679

    Text #2
    ID                                       : 5
    Format                                   : PGS
    Muxing mode                              : zlib
    Codec ID                                 : S_HDMV/PGS
    Codec ID/Info                            : Picture based subtitle format used on BDs/HD-DVDs
    Language                                 : English
    Default                                  : No
    Forced                                   : No
    Statistics Tags Issue                    : mkvmerge v15.0.0 ('Duel with the Devil') 64-bit 2017-11-06 04:26:08 / mkvmerge v15.0.0 ('Duel with the Devil') 64-bit 2017-11-06 04:26:08 / UTC 2017-11-05T04:44:12Z
    FromStats_BitRate                        : 34173
    FromStats_Duration                       : 02:37:22.058000000
    FromStats_FrameCount                     : 3352
    FromStats_StreamSize                     : 40333462

  • Peso: 26.3 GiB

Sinopsis

Iniciandose con la invasion aliada a Normandia el 6 de Junio de 1944, los miembros del 2do batallon de asalto bajo las ordenes del capitan Miller luchan por ganar el control de la playa. En el combate dos hermanos resultan muertos. Un poco antes en Nueva Guinea, un tercer hermano muere tambien. Su madre, la señora Ryan, va a recibir tres telegramas de defuncion el mismo dia. El jefe del ejercito estadounidense, George C. Marshall, ve la oportunidad de aliviar el sufrimiento de la señora cuando se entera de la existencia de un cuarto hermano, el soldado James Ryan, y decide enviar a 8 hombres (El capitan Miller y un grupo selecto de su batallon) a buscarlo y devolverlo a casa de su madre.

Ficha técnica

Video trailer de la película

Enlaces de descarga

Descargar Salvar al soldado Ryan (1998) Full 1080p Latino
Descargar

dpeliculas

Aportes de DPeliculasHDmega la pass es:dpeliculashdmega.org Aportes de CinemaniaHD la pass es:cinemaniahdd.com

Películas relacionadas

  • La autopsia de Jane Doe (2016) Full 1080p Latino

    2016
    La autopsia de Jane Doe (2016) Full 1080p Latino

    0.0 1h 39m 2016

    En una pequeño pueblo de Virginia aparece el cuerpo desnudo y semienterrado de una hermosa joven, misteriosa...

    Director: Sheila McNaught

    Género: FULL 1080p Pesadas

    Actores: Parker Sawyers

  • Guardianes de altamar (2006) Full 1080p Latino

    2006
    Guardianes de altamar (2006) Full 1080p Latino

    0.0 2h 16m 2006

    Después de perder a su equipo en un trágico accidente, Ben Randall, un legendario nadador de rescate,...

    Director: Andrew Davis

    Género: Acción

    Actores: Travis Willingham

  • Lo que de verdad importa (2017) Full 1080p Latino

    2017
    Lo que de verdad importa (2017) Full 1080p Latino

    0.0 1 h 48 min 2017

    Alex vive en Inglaterrra, trabaja arreglando aparatos eléctricos en una empresa que no va bien económicamente,...

    Director: Paco Arango

    Género: Castellano

    Actores: Suresh John

  • Open Water 3 (2017) 1080p Latino

    2017
    Open Water 3 (2017) 1080p Latino

    0.0 1 h 20 min 2017

    Tres amigos viajan a Australia con la intención de grabar un vídeo buceando entre tiburones, que les...

    Director: Gerald Rascionato

    Género: Drama

    Actores: Tara Wraith

Comentarios 12
  • luis - 11 noviembre, 2017

    asi serian todas las peliculas

    • dpelis

      Administrador
      - 11 noviembre, 2017

      todo depende del bluray estimado, el programa decide q gb dejar para mayor calidad, aqui no encontrara cantidad de gbs, sino q calidad,

  • Lobo - 10 noviembre, 2017

    y el remux cuanto pesara ..

    • Dpelis2 pelis2

      Autor
      - 10 noviembre, 2017

      38.GB

  • Slash - 09 noviembre, 2017

    Increíble, se ve y quedo de lujo, muchas gracias.

  • Oscar Arzate - 09 noviembre, 2017

    Hola equipo, disculpen una pregunta…..
    Me ha pasado ya en 3 ocasiones que al bajar peliculas full hd que pesan de 12 gb en adelante, que JDownloader me tira error a la hora de la extraccion y la hago manualmente e igual me tira error….pero leyendo comentarios veo que soy al unico que le pasa……Como puedo darle solucion a este tema??
    Saludos y gracias por los aportes

  • TONY - 09 noviembre, 2017

    QUE BARBARO AMIGO GENIAL, OJALA Y SIGAN SUBIENDO PELICULAS DE ESTA GRAN CALIDAD Y PESO, MUCHAS GRACIAS Y SON LOS MEJORES¡¡¡, SE VE SUPER LA PELICULA¡¡¡

  • Jonna - 09 noviembre, 2017

    Por que tanto ? 26Gb es un BD25 :/ unos 10 estaría bien 🙁

    • Dpelis2 pelis2

      Autor
      - 09 noviembre, 2017

      Este es Un Rip de un BD50 original. Si estas buscando calidad tienes que descargarlo! si lo que quieres es peso tendras que buscar otro. Pero aca se sube todo a la máxima calidad posible y con ese peso tiene la misma calidad que el BD50. Saludos

      • Jonna - 09 noviembre, 2017

        Entiendo, gracias por la aclaración

    • dpelis

      Administrador
      - 09 noviembre, 2017

      usamos la configuracion de siempre, y el programa asi lo dejo