Sahara (2017) 1080p Latino

1.555 vistas
1 estrella2 estrellas3 estrellas4 estrellas5 estrellas (1 votos, promedio: 1,00 de 5)
Cargando…

Información de Sahara (2017) 1080p Latino

Datos de la película

  • Calidad: 1080p
  • Audio: Español Latino AC3 5.1 BLURAY- Frances AC3 5.1 BLURAY
  • Subtitulos: Español Latino SRT - Ingles SRT
  • Resolución: 1920x800p
  • Formato: MKV
  • Codec: H.264
  • Encoder: Dpelis
  • Mediainfo: Ver Ver
  • Sahara 2017 1080p Latino.mkv
    Format                      : Matroska
    Format version              : Version 4 / Version 2
    File size                   : 2.51 GiB
    Duration                    : 1 h 24 min
    Overall bit rate            : 4 241 kb/s
    Movie name                  : DPeliculasHDMega.ORG
    Encoded date                : UTC 2017-06-22 02:51:41 / UTC 2017-06-22T00:42:02Z
    Writing application         : mkvmerge v10.0.0 ('To Drown In You') 64bit
    Writing library             : libebml v1.3.4 + libmatroska v1.4.5 / Lavf57.7.2

    Video
    ID                          : 1
    Format                      : AVC
    Format/Info                 : Advanced Video Codec
    Format profile              : [email protected]
    Format settings, CABAC      : Yes
    Format settings, ReFrames   : 4 frames
    Codec ID                    : V_MPEG4/ISO/AVC
    Duration                    : 1 h 24 min
    Bit rate                    : 3 500 kb/s
    Width                       : 1 920 pixels
    Height                      : 800 pixels
    Display aspect ratio        : 2.40:1
    Frame rate mode             : Constant
    Frame rate                  : 24.000 FPS
    Color space                 : YUV
    Chroma subsampling          : 4:2:0
    Bit depth                   : 8 bits
    Scan type                   : Progressive
    Bits/(Pixel*Frame)          : 0.095
    Stream size                 : 2.00 GiB (80%)
    Writing library             : x264 core 148 r2708 86b7198
    Encoding settings           : cabac=1 / ref=3 / deblock=1:0:0 / analyse=0x3:0x113 / me=hex / subme=7 / psy=1 / psy_rd=1.00:0.00 / mixed_ref=1 / me_range=16 / chroma_me=1 / trellis=1 / 8x8dct=1 / cqm=0 / deadzone=21,11 / fast_pskip=1 / chroma_qp_offset=-2 / threads=25 / lookahead_threads=4 / sliced_threads=0 / nr=0 / decimate=1 / interlaced=0 / bluray_compat=0 / constrained_intra=0 / bframes=3 / b_pyramid=2 / b_adapt=1 / b_bias=0 / direct=1 / weightb=1 / open_gop=0 / weightp=2 / keyint=240 / keyint_min=24 / scenecut=40 / intra_refresh=0 / rc_lookahead=40 / rc=abr / mbtree=1 / bitrate=3500 / ratetol=1.0 / qcomp=0.60 / qpmin=0 / qpmax=69 / qpstep=4 / vbv_maxrate=62500 / vbv_bufsize=78125 / nal_hrd=none / filler=0 / ip_ratio=1.40 / aq=1:1.00
    Default                     : Yes
    Forced                      : No
    Color range                 : Limited
    Color primaries             : BT.709
    Transfer characteristics    : BT.709
    Matrix coefficients         : BT.709
    Statistics Tags Issue       : mkvmerge v10.0.0 ('To Drown In You') 64bit 2017-06-22 02:51:41 / mkvmerge v10.0.0 ('To Drown In You') 64bit 2017-06-22 02:51:41 / UTC 2017-06-22T00:42:02Z
    FromStats_BitRate           : 3465454
    FromStats_Duration          : 01:24:38.042000000
    FromStats_FrameCount        : 121873
    FromStats_StreamSize        : 2199715192

    Audio #1
    ID                          : 2
    Format                      : AC-3
    Format/Info                 : Audio Coding 3
    Format settings, Endianness : Big
    Codec ID                    : A_AC3
    Duration                    : 1 h 24 min
    Bit rate mode               : Constant
    Bit rate                    : 384 kb/s
    Channel(s)                  : 6 channels
    Channel positions           : Front: L C R, Side: L R, LFE
    Sampling rate               : 48.0 kHz
    Frame rate                  : 31.250 FPS (1536 spf)
    Bit depth                   : 16 bits
    Compression mode            : Lossy
    Stream size                 : 232 MiB (9%)
    Title                       : Surround
    Language                    : Spanish
    Service kind                : Complete Main
    Default                     : Yes
    Forced                      : No
    Statistics Tags Issue       : mkvmerge v10.0.0 ('To Drown In You') 64bit 2017-06-22 02:51:41 / mkvmerge v10.0.0 ('To Drown In You') 64bit 2017-06-22 02:51:41 / UTC 2017-06-22T00:42:02Z
    FromStats_BitRate           : 384000
    FromStats_Duration          : 01:24:38.048000000
    FromStats_FrameCount        : 158689
    FromStats_StreamSize        : 243746304

    Audio #2
    ID                          : 3
    Format                      : AC-3
    Format/Info                 : Audio Coding 3
    Format settings, Endianness : Big
    Codec ID                    : A_AC3
    Duration                    : 1 h 24 min
    Bit rate mode               : Constant
    Bit rate                    : 384 kb/s
    Channel(s)                  : 6 channels
    Channel positions           : Front: L C R, Side: L R, LFE
    Sampling rate               : 48.0 kHz
    Frame rate                  : 31.250 FPS (1536 spf)
    Bit depth                   : 16 bits
    Compression mode            : Lossy
    Stream size                 : 232 MiB (9%)
    Title                       : Surround
    Language                    : French
    Service kind                : Complete Main
    Default                     : No
    Forced                      : No
    Statistics Tags Issue       : mkvmerge v10.0.0 ('To Drown In You') 64bit 2017-06-22 02:51:41 / mkvmerge v10.0.0 ('To Drown In You') 64bit 2017-06-22 02:51:41 / UTC 2017-06-22T00:42:02Z
    FromStats_BitRate           : 384000
    FromStats_Duration          : 01:24:38.016000000
    FromStats_FrameCount        : 158688
    FromStats_StreamSize        : 243744768

    Text #1
    ID                          : 4
    Format                      : PGS
    Muxing mode                 : zlib
    Codec ID                    : S_HDMV/PGS
    Codec ID/Info               : Picture based subtitle format used on BDs/HD-DVDs
    Language                    : English
    Default                     : No
    Forced                      : No
    Statistics Tags Issue       : mkvmerge v10.0.0 ('To Drown In You') 64bit 2017-06-22 02:51:41 / mkvmerge v10.0.0 ('To Drown In You') 64bit 2017-06-22 02:51:41 / UTC 2017-06-22T00:42:02Z
    FromStats_BitRate           : 5877
    FromStats_Duration          : 01:20:54.375000000
    FromStats_FrameCount        : 2013
    FromStats_StreamSize        : 3566595

    Text #2
    ID                          : 5
    Format                      : UTF-8
    Codec ID                    : S_TEXT/UTF8
    Codec ID/Info               : UTF-8 Plain Text
    Language                    : Spanish
    Default                     : Yes
    Forced                      : No
    Statistics Tags Issue       : mkvmerge v10.0.0 ('To Drown In You') 64bit 2017-06-22 02:51:41 / mkvmerge v10.0.0 ('To Drown In You') 64bit 2017-06-22 02:51:41 / UTC 2017-06-22T00:42:02Z
    FromStats_BitRate           : 43
    FromStats_Duration          : 01:17:36.292000000
    FromStats_FrameCount        : 805
    FromStats_StreamSize        : 25439

    Text #3
    ID                          : 6
    Format                      : UTF-8
    Codec ID                    : S_TEXT/UTF8
    Codec ID/Info               : UTF-8 Plain Text
    Language                    : English
    Default                     : No
    Forced                      : No
    Statistics Tags Issue       : mkvmerge v10.0.0 ('To Drown In You') 64bit 2017-06-22 02:51:41 / mkvmerge v10.0.0 ('To Drown In You') 64bit 2017-06-22 02:51:41 / UTC 2017-06-22T00:42:02Z
    FromStats_BitRate           : 53
    FromStats_Duration          : 01:20:54.375000000
    FromStats_FrameCount        : 999
    FromStats_StreamSize        : 32203

    Menu
    00:00:00.000                : :Chapter 1
    00:06:22.958                : :Chapter 2
    00:13:12.833                : :Chapter 3
    00:22:37.333                : :Chapter 4
    00:31:01.083                : :Chapter 5
    00:40:45.375                : :Chapter 6
    00:46:37.583                : :Chapter 7
    00:53:16.292                : :Chapter 8
    00:59:19.083                : :Chapter 9
    01:05:56.500                : :Chapter 10
    01:10:45.500                : :Chapter 11
    01:18:42.000                : :Chapter 12

  • Peso: 2.51 GB

Sinopsis

Cansado de ser el chivo expiatorio de su comunidad, entreabierta una serpiente y su amigo Pitt, escorpión, decidir a tientas su suerte en un oasis cerca habitado por la nobleza del desierto del Sahara y volver a encontrar a Eva, una hermosa serpiente se convirtió en entreabierta encaprichado. Este es el comienzo de divertidas aventuras que los llevan a través del desierto en busca del amor y la búsqueda de uno mismo.

Ficha técnica

Imágenes, Capturas de la película

Video trailer de la película

Enlaces de descarga

Descargar Sahara (2017) 1080p Latino
Descargar
Descargar Sahara (2017) 1080p Latino
Descargar

dpeliculas

Aportes de DPeliculasHDmega la pass es:dpeliculashdmega.org Aportes de CinemaniaHD la pass es:cinemaniahdd.com
Guardado en : Animación , Aventura , Comedia , Familia

PelícuDelas relacionadas

  • Sahara (2017) 720p Latino

    2017
    Sahara (2017) 720p Latino

    0.0 1h 24m 2017

    Descargar Pelicula Sahara 2017 hd 720p latino,Cansados de ser el chivo expiatorio de su comunidad, Ajar...

    Director: Pierre Coré

    Género: Animación

    Actores: Vincent Lacoste

  • Resident Evil Vendetta (2017) WEBDL 1080p Latino

    2017
    Resident Evil Vendetta (2017) WEBDL 1080p Latino

    5.0 1h 37m 2017

    Descargar Pelicula Resident Evil Vendetta WEBDL 1080p Latino, La trama se centra en Rebecca Chambers,...

    Director: Takanori Tsujimoto

    Género: Animación

    Actores: Sam Riegel

  • Los Pitufos: La aldea escondida (2017) WEBDL 720p Latino

    2017
    Los Pitufos: La aldea escondida (2017) WEBDL 720p Latino

    5.0 1h 35m 2017

    A Pitufina le parece que todos los demás habitantes de la aldea tienen un propósito: Papá Pitufo (dirigir),...

    Director: Kelly Asbury

    Género: Animación

    Actores: Tituss Burgess

Comentarios 1
  • FRANCISCO - 17 Mayo, 2017

    fantástico la calidad de las películas ,se ve muy bien , la explicación de como bajarlo. te felicito , valió el tiempo invertido…. ademas este dibujo es hermosoooo…