Advertise here

RocknRolla (2008) Full 1080p Latino

459 vistas
1 estrella2 estrellas3 estrellas4 estrellas5 estrellas (Ninguna valoración todavía)
Cargando…

Información de RocknRolla (2008) Full 1080p Latino

Datos de la película

  • Calidad: Full 1080p
  • Audio: Español Latino AC3 5.1 DVD - Ingles AC3 5.1 BLURAY
  • Subtitulos: Español Latino PGS - Ingles PGS
  • Resolución: 1920X1080
  • Formato: MKV
  • Codec: H.264
  • Encoder: Dpelis
  • Mediainfo: Clic para Mostrar Datos Ver
  • Format                                   : Matroska
    Format version                           : Version 4 / Version 2
    File size                                : 2.97 GiB
    Duration                                 : 1 h 54 min
    Overall bit rate                         : 3 722 kb/s
    Movie name                               : dpeliculashdmega.org
    Encoded date                             : UTC 2017-11-13 21:46:09 / UTC 2017-11-13T11:16:55Z
    Writing application                      : mkvmerge v15.0.0 ('Duel with the Devil') 64-bit
    Writing library                          : libebml v1.3.5 + libmatroska v1.4.5 / Lavf57.7.2

    Video
    ID                                       : 1
    Format                                   : AVC
    Format/Info                              : Advanced Video Codec
    Format profile                           : [email protected]
    Format settings                          : CABAC / 4 Ref Frames
    Format settings, CABAC                   : Yes
    Format settings, RefFrames               : 4 frames
    Codec ID                                 : V_MPEG4/ISO/AVC
    Duration                                 : 1 h 54 min
    Bit rate                                 : 2 624 kb/s
    Width                                    : 1 920 pixels
    Height                                   : 1 080 pixels
    Display aspect ratio                     : 16:9
    Frame rate mode                          : Constant
    Frame rate                               : 23.976 (24000/1001) FPS
    Color space                              : YUV
    Chroma subsampling                       : 4:2:0
    Bit depth                                : 8 bits
    Scan type                                : Progressive
    Bits/(Pixel*Frame)                       : 0.053
    Stream size                              : 2.10 GiB (70%)
    Title                                    : RocknRolla (2008) Full 1080p Latino
    Writing library                          : x264 core 148 r2708 86b7198
    Encoding settings                        : cabac=1 / ref=4 / deblock=1:0:0 / analyse=0x3:0x133 / me=esa / subme=10 / psy=1 / psy_rd=1.00:0.00 / mixed_ref=1 / me_range=24 / chroma_me=1 / trellis=2 / 8x8dct=1 / cqm=0 / deadzone=21,11 / fast_pskip=1 / chroma_qp_offset=-2 / threads=34 / lookahead_threads=5 / sliced_threads=0 / nr=0 / decimate=1 / interlaced=0 / bluray_compat=0 / constrained_intra=0 / bframes=8 / b_pyramid=2 / b_adapt=2 / b_bias=0 / direct=3 / weightb=1 / open_gop=0 / weightp=2 / keyint=240 / keyint_min=24 / scenecut=40 / intra_refresh=0 / rc_lookahead=60 / rc=crf / mbtree=1 / crf=20.0 / qcomp=0.60 / qpmin=0 / qpmax=69 / qpstep=4 / vbv_maxrate=62500 / vbv_bufsize=78125 / crf_max=0.0 / nal_hrd=none / filler=0 / ip_ratio=1.40 / aq=1:1.00
    Language                                 : English
    Default                                  : Yes
    Forced                                   : No
    Color range                              : Limited
    Color primaries                          : BT.709
    Transfer characteristics                 : BT.709
    Matrix coefficients                      : BT.709
    Statistics Tags Issue                    : mkvmerge v15.0.0 ('Duel with the Devil') 64-bit 2017-11-13 21:46:09 / mkvmerge v15.0.0 ('Duel with the Devil') 64-bit 2017-11-13 21:46:09 / UTC 2017-11-13T11:16:55Z
    FromStats_BitRate                        : 2661502
    FromStats_Duration                       : 01:54:19.019000000
    FromStats_FrameCount                     : 164452
    FromStats_StreamSize                     : 2281911839

    Audio #1
    ID                                       : 2
    Format                                   : AC-3
    Format/Info                              : Audio Coding 3
    Format settings, Endianness              : Big
    Codec ID                                 : A_AC3
    Duration                                 : 1 h 54 min
    Bit rate mode                            : Constant
    Bit rate                                 : 384 kb/s
    Channel(s)                               : 6 channels
    Channel positions                        : Front: L C R, Side: L R, LFE
    Sampling rate                            : 48.0 kHz
    Frame rate                               : 31.250 FPS (1536 SPF)
    Bit depth                                : 16 bits
    Compression mode                         : Lossy
    Delay relative to video                  : 1 s 0 ms
    Stream size                              : 314 MiB (10%)
    Title                                    : Latino-AC3
    Language                                 : Spanish
    Service kind                             : Complete Main
    Default                                  : Yes
    Forced                                   : No
    Statistics Tags Issue                    : mkvmerge v15.0.0 ('Duel with the Devil') 64-bit 2017-11-13 21:46:09 / mkvmerge v15.0.0 ('Duel with the Devil') 64-bit 2017-11-13 21:46:09 / UTC 2017-11-13T11:16:55Z
    FromStats_BitRate                        : 384000
    FromStats_Duration                       : 01:54:10.976000000
    FromStats_FrameCount                     : 214093
    FromStats_StreamSize                     : 328846848

    Audio #2
    ID                                       : 3
    Format                                   : AC-3
    Format/Info                              : Audio Coding 3
    Format settings, Endianness              : Big
    Codec ID                                 : A_AC3
    Duration                                 : 1 h 54 min
    Bit rate mode                            : Constant
    Bit rate                                 : 640 kb/s
    Channel(s)                               : 6 channels
    Channel positions                        : Front: L C R, Side: L R, LFE
    Sampling rate                            : 48.0 kHz
    Frame rate                               : 31.250 FPS (1536 SPF)
    Bit depth                                : 16 bits
    Compression mode                         : Lossy
    Stream size                              : 523 MiB (17%)
    Title                                    : Ingles-AC3
    Language                                 : English
    Service kind                             : Complete Main
    Default                                  : No
    Forced                                   : No
    Statistics Tags Issue                    : mkvmerge v15.0.0 ('Duel with the Devil') 64-bit 2017-11-13 21:46:09 / mkvmerge v15.0.0 ('Duel with the Devil') 64-bit 2017-11-13 21:46:09 / UTC 2017-11-13T11:16:55Z
    FromStats_BitRate                        : 640000
    FromStats_Duration                       : 01:54:19.072000000
    FromStats_FrameCount                     : 214346
    FromStats_StreamSize                     : 548725760

    Text #1
    ID                                       : 4
    Format                                   : PGS
    Muxing mode                              : zlib
    Codec ID                                 : S_HDMV/PGS
    Codec ID/Info                            : Picture based subtitle format used on BDs/HD-DVDs
    Language                                 : English
    Default                                  : No
    Forced                                   : No
    Statistics Tags Issue                    : mkvmerge v15.0.0 ('Duel with the Devil') 64-bit 2017-11-13 21:46:09 / mkvmerge v15.0.0 ('Duel with the Devil') 64-bit 2017-11-13 21:46:09 / UTC 2017-11-13T11:16:55Z
    FromStats_BitRate                        : 42654
    FromStats_Duration                       : 01:53:42.858000000
    FromStats_FrameCount                     : 3358
    FromStats_StreamSize                     : 36377970

    Text #2
    ID                                       : 5
    Format                                   : PGS
    Muxing mode                              : zlib
    Codec ID                                 : S_HDMV/PGS
    Codec ID/Info                            : Picture based subtitle format used on BDs/HD-DVDs
    Language                                 : Spanish
    Default                                  : No
    Forced                                   : No
    Statistics Tags Issue                    : mkvmerge v15.0.0 ('Duel with the Devil') 64-bit 2017-11-13 21:46:09 / mkvmerge v15.0.0 ('Duel with the Devil') 64-bit 2017-11-13 21:46:09 / UTC 2017-11-13T11:16:55Z
    FromStats_BitRate                        : 36982
    FromStats_Duration                       : 01:53:42.858000000
    FromStats_FrameCount                     : 3254
    FromStats_StreamSize                     : 31541058

    Menu
    00:00:00.000                             : :How Lenny Works
    00:05:10.101                             : :Old School
    00:08:48.903                             : :Meet The Accountant
    00:12:34.420                             : :Runaround with Councillor
    00:15:28.428                             : :Slapped with a Job
    00:18:35.865                             : :Money Transfer
    00:23:05.509                             : :Junkie Minds; The Payoff
    00:28:17.905                             : :What Bob Wants
    00:34:02.832                             : :Immersive Interrogation
    00:38:55.750                             : :Shrink Time
    00:44:27.373                             : :Think We're Gangsters
    00:47:09.035                             : :I Run This Town
    00:51:28.669                             : :Party Conversations
    00:57:48.548                             : :Making a Complaint
    01:00:41.513                             : :Something About Bob
    01:03:11.496                             : :Worth More Dead
    01:06:21.978                             : :Car Trouble
    01:11:38.294                             : :Rush Of Russians
    01:16:00.264                             : :Truth Splitting
    01:22:12.428                             : :Picture Poachers
    01:26:02.866                             : :Welcome/Unwelcome Visitors
    01:29:50.302                             : :This a Bad Time?
    01:32:45.185                             : :Beauty Is a Cruel Mistress
    01:36:05.510                             : :All the Old Faces
    01:40:54.549                             : :Dirty Sidney
    01:43:23.030                             : :Johnny Calls the Shots
    01:45:26.153                             : :Becoming Real
    01:48:22.121                             : :End Credits

  • Peso: 2.97 GiB

Sinopsis

Cuando un mafioso ruso crea una estafa inmobiliaria que genera millones de libras, varios miembros del hampa de Londres empiezan a perseguir su parte del botín. Varios personajes sospechosos, entre ellos Mr One-Two, Stella la contable, y Johnny Quid, estrella del rock y drogadicto, tratan de reclamar su tajada.

Ficha técnica

Video trailer de la película

Enlaces de descarga

Descargar RocknRolla (2008) Full 1080p Latino
Descargar

dpeliculas

Aportes de DPeliculasHDmega la pass es:dpeliculashdmega.org Aportes de CinemaniaHD la pass es:cinemaniahdd.com

Películas relacionadas

  • Toy Story 3 (2010) Full 1080p Latino

    2010
    Toy Story 3 (2010) Full 1080p Latino

    0.0 1 h 43 min 2010

    Sabiendo que su dueño Andy, que ya no es un niño, se prepara para ir a la universidad, el vaquero Woody,...

    Director: Mark Sanford

    Género: Animación

    Actores: Whoopi Goldberg

  • Toy Story (1995) Full 1080p Latino

    1995
    Toy Story (1995) Full 1080p Latino

    0.0 1 h 21 min 1995

    Los juguetes de Andy, un niño de 6 años, temen que haya llegado su hora y que un nuevo regalo de cumpleaños...

    Director: Roman Figun

    Género: Animación

    Actores: Wallace Shawn

  • Avatar (2009) EXTENDED Full 1080p Latino

    2009
    Avatar (2009) EXTENDED Full 1080p Latino

    0.0 2 h 58 min 2009

    Jake Sully, un ex-marine confinado a una silla de ruedas, es reclutado para viajar al planeta Pandora,...

    Director: James Cameron

    Género: Acción

    Actores: Zoe Saldana

Comentarios 0