Advertise here

Rock Dog (2016) 1080p Latino

2.575 vistas
1 estrella2 estrellas3 estrellas4 estrellas5 estrellas (1 votos, promedio: 5,00 de 5)
Cargando…

Información de Rock Dog (2016) 1080p Latino

el perro rockero 1080p latino

Datos de la película

  • Calidad: Full 1080p
  • Audio: Español Latino AC3 5.1 DVD - Ingles AC3 5.1 BLURAY
  • Subtitulos: Español Latino SRT - Ingles SRT
  • Resolución: 1920x1080p
  • Formato: MKV
  • Codec: H.264
  • Encoder: Dpelis
  • Mediainfo: Clic para Mostrar Datos Ver
  • Rock dog 2016 1080p Latino.mkv
    Format                      : Matroska
    Format version              : Version 4 / Version 2
    File size                   : 2.69 GiB
    Duration                    : 1 h 29 min
    Overall bit rate            : 4 279 kb/s
    Movie name                  : DPeliculasHDMega.ORG
    Encoded date                : UTC 2017-05-06 22:15:29 / UTC 2017-05-06T19:21:55Z
    Writing application         : mkvmerge v10.0.0 ('To Drown In You') 64bit
    Writing library             : libebml v1.3.4 + libmatroska v1.4.5 / Lavf57.7.2

    Video
    ID                          : 1
    Format                      : AVC
    Format/Info                 : Advanced Video Codec
    Format profile              : [email protected]
    Format settings, CABAC      : Yes
    Format settings, ReFrames   : 4 frames
    Codec ID                    : V_MPEG4/ISO/AVC
    Duration                    : 1 h 29 min
    Bit rate                    : 3 500 kb/s
    Width                       : 1 920 pixels
    Height                      : 1 080 pixels
    Display aspect ratio        : 16:9
    Frame rate mode             : Constant
    Frame rate                  : 23.976 (24000/1001) FPS
    Color space                 : YUV
    Chroma subsampling          : 4:2:0
    Bit depth                   : 8 bits
    Scan type                   : Progressive
    Bits/(Pixel*Frame)          : 0.070
    Stream size                 : 2.11 GiB (79%)
    Writing library             : x264 core 148 r2708 86b7198
    Encoding settings           : cabac=1 / ref=3 / deblock=1:0:0 / analyse=0x3:0x113 / me=hex / subme=7 / psy=1 / psy_rd=1.00:0.00 / mixed_ref=1 / me_range=16 / chroma_me=1 / trellis=1 / 8x8dct=1 / cqm=0 / deadzone=21,11 / fast_pskip=1 / chroma_qp_offset=-2 / threads=12 / lookahead_threads=2 / sliced_threads=0 / nr=0 / decimate=1 / interlaced=0 / bluray_compat=0 / constrained_intra=0 / bframes=3 / b_pyramid=2 / b_adapt=1 / b_bias=0 / direct=1 / weightb=1 / open_gop=0 / weightp=2 / keyint=240 / keyint_min=24 / scenecut=40 / intra_refresh=0 / rc_lookahead=40 / rc=abr / mbtree=1 / bitrate=3500 / ratetol=1.0 / qcomp=0.60 / qpmin=0 / qpmax=69 / qpstep=4 / vbv_maxrate=62500 / vbv_bufsize=78125 / nal_hrd=none / filler=0 / ip_ratio=1.40 / aq=1:1.00
    Default                     : Yes
    Forced                      : No
    Color range                 : Limited
    Color primaries             : BT.709
    Transfer characteristics    : BT.709
    Matrix coefficients         : BT.709
    Statistics Tags Issue       : mkvmerge v10.0.0 ('To Drown In You') 64bit 2017-05-06 22:15:29 / mkvmerge v10.0.0 ('To Drown In You') 64bit 2017-05-06 22:15:29 / UTC 2017-05-06T19:21:55Z
    FromStats_BitRate           : 3444230
    FromStats_Duration          : 01:29:56.433000000
    FromStats_FrameCount        : 129385
    FromStats_StreamSize        : 2323319923

    Audio #1
    ID                          : 2
    Format                      : AC-3
    Format/Info                 : Audio Coding 3
    Format settings, Endianness : Big
    Codec ID                    : A_AC3
    Duration                    : 1 h 29 min
    Bit rate mode               : Constant
    Bit rate                    : 448 kb/s
    Channel(s)                  : 6 channels
    Channel positions           : Front: L C R, Side: L R, LFE
    Sampling rate               : 48.0 kHz
    Frame rate                  : 31.250 FPS (1536 spf)
    Bit depth                   : 16 bits
    Compression mode            : Lossy
    Delay relative to video     : -5 ms
    Stream size                 : 288 MiB (10%)
    Language                    : Spanish
    Service kind                : Complete Main
    Default                     : No
    Forced                      : No
    Statistics Tags Issue       : mkvmerge v10.0.0 ('To Drown In You') 64bit 2017-05-06 22:15:29 / mkvmerge v10.0.0 ('To Drown In You') 64bit 2017-05-06 22:15:29 / UTC 2017-05-06T19:21:55Z
    FromStats_BitRate           : 448000
    FromStats_Duration          : 01:29:56.416000000
    FromStats_FrameCount        : 168638
    FromStats_StreamSize        : 302199296

    Audio #2
    ID                          : 3
    Format                      : AC-3
    Format/Info                 : Audio Coding 3
    Format settings, Endianness : Big
    Codec ID                    : A_AC3
    Duration                    : 1 h 29 min
    Bit rate mode               : Constant
    Bit rate                    : 384 kb/s
    Channel(s)                  : 6 channels
    Channel positions           : Front: L C R, Side: L R, LFE
    Sampling rate               : 48.0 kHz
    Frame rate                  : 31.250 FPS (1536 spf)
    Bit depth                   : 16 bits
    Compression mode            : Lossy
    Delay relative to video     : -5 ms
    Stream size                 : 247 MiB (9%)
    Title                       : Surround
    Language                    : English
    Service kind                : Complete Main
    Default                     : Yes
    Forced                      : No
    Statistics Tags Issue       : mkvmerge v10.0.0 ('To Drown In You') 64bit 2017-05-06 22:15:29 / mkvmerge v10.0.0 ('To Drown In You') 64bit 2017-05-06 22:15:29 / UTC 2017-05-06T19:21:55Z
    FromStats_BitRate           : 384000
    FromStats_Duration          : 01:29:56.416000000
    FromStats_FrameCount        : 168638
    FromStats_StreamSize        : 259027968

    Text #1
    ID                          : 4
    Format                      : UTF-8
    Codec ID                    : S_TEXT/UTF8
    Codec ID/Info               : UTF-8 Plain Text
    Language                    : Spanish
    Default                     : Yes
    Forced                      : No
    Statistics Tags Issue       : mkvmerge v10.0.0 ('To Drown In You') 64bit 2017-05-06 22:15:29 / mkvmerge v10.0.0 ('To Drown In You') 64bit 2017-05-06 22:15:29 / UTC 2017-05-06T19:21:55Z
    FromStats_BitRate           : 60
    FromStats_Duration          : 01:20:07.198000000
    FromStats_FrameCount        : 1092
    FromStats_StreamSize        : 36134

    Text #2
    ID                          : 5
    Format                      : UTF-8
    Codec ID                    : S_TEXT/UTF8
    Codec ID/Info               : UTF-8 Plain Text
    Language                    : English
    Default                     : No
    Forced                      : No
    Statistics Tags Issue       : mkvmerge v10.0.0 ('To Drown In You') 64bit 2017-05-06 22:15:29 / mkvmerge v10.0.0 ('To Drown In You') 64bit 2017-05-06 22:15:29 / UTC 2017-05-06T19:21:55Z
    FromStats_BitRate           : 108
    FromStats_Duration          : 01:29:30.486000000
    FromStats_FrameCount        : 1442
    FromStats_StreamSize        : 72975

    Text #3
    ID                          : 6
    Format                      : UTF-8
    Codec ID                    : S_TEXT/UTF8
    Codec ID/Info               : UTF-8 Plain Text
    Language                    : Spanish
    Default                     : No
    Forced                      : No
    Statistics Tags Issue       : mkvmerge v10.0.0 ('To Drown In You') 64bit 2017-05-06 22:15:29 / mkvmerge v10.0.0 ('To Drown In You') 64bit 2017-05-06 22:15:29 / UTC 2017-05-06T19:21:55Z
    FromStats_BitRate           : 0
    FromStats_Duration          : 00:46:24.355000000
    FromStats_FrameCount        : 7
    FromStats_StreamSize        : 136

    Menu
    00:00:00.000                : :00:00:00.000
    00:04:59.883                : :00:04:59.883
    00:11:28.897                : :00:11:28.897
    00:17:51.153                : :00:17:51.153
    00:23:27.406                : :00:23:27.406
    00:31:10.827                : :00:31:10.827
    00:35:13.528                : :00:35:13.528
    00:39:05.927                : :00:39:05.927
    00:45:22.470                : :00:45:22.470
    00:50:30.694                : :00:50:30.694
    00:55:35.791                : :00:55:35.791
    00:59:20.599                : :00:59:20.599
    01:04:15.018                : :01:04:15.018
    01:09:00.511                : :01:09:00.511
    01:12:52.034                : :01:12:52.034
    01:18:57.524                : :01:18:57.524

  • Peso: 2.69 GB

Sinopsis

Descargar Película Rock Dog 1080p latino también conocida como el Perro rockero hd latino, es una película de animación del 2016, Cuando un cielo caen Radio, un mastín tibetano fue de casa para perseguir su sueño de convertirse en un músico, el lanzamiento de una serie de eventos inesperados.

Ficha técnica

Video trailer de la película

Enlaces de descarga

Descargar Rock Dog (2016) 1080p Latino
Descargar

dpeliculas

Aportes de DPeliculasHDmega la pass es:dpeliculashdmega.org Aportes de CinemaniaHD la pass es:cinemaniahdd.com
Guardado en : Animación , Aventura , Comedia , Familia , Música

Películas relacionadas

Comentarios 2
  • Edward - 29 mayo, 2017

    El link al paste no funciona

    • dpelis

      Administrador
      - 30 mayo, 2017

      reparado