Advertise here

Resident Evil Vendetta (2017) 720p Latino

5.610 vistas
1 estrella2 estrellas3 estrellas4 estrellas5 estrellas (Ninguna valoración todavía)
Cargando…

Información de Resident Evil Vendetta (2017) 720p Latino

Datos de la película

  • Calidad: 720p
  • Audio: Español Latino AC3 5.1 BLURAY - Ingles AC3 5.1 BLURAY
  • Subtitulos: Español Latino SRT - Ingles SRT
  • Resolución: 1280x720p
  • Formato: MKV
  • Codec: H.264
  • Encoder: Dpelis
  • Mediainfo: Clic para Mostrar Datos Ver
  • Resident.evil.vendetta.2017.720p.Latino.mkv
    Format                      : Matroska
    Format version              : Version 4 / Version 2
    File size                   : 1.65 GiB
    Duration                    : 1 h 37 min
    Overall bit rate            : 2 426 kb/s
    Encoded date                : UTC 2017-07-02 04:40:05 / UTC 2017-07-02T03:36:29Z
    Writing application         : mkvmerge v10.0.0 ('To Drown In You') 64bit
    Writing library             : libebml v1.3.4 + libmatroska v1.4.5 / Lavf57.7.2

    Video
    ID                          : 1
    Format                      : AVC
    Format/Info                 : Advanced Video Codec
    Format profile              : [email protected]
    Format settings, CABAC      : Yes
    Format settings, ReFrames   : 4 frames
    Codec ID                    : V_MPEG4/ISO/AVC
    Duration                    : 1 h 37 min
    Bit rate                    : 1 610 kb/s
    Nominal bit rate            : 1 700 kb/s
    Width                       : 1 280 pixels
    Height                      : 720 pixels
    Display aspect ratio        : 16:9
    Frame rate mode             : Constant
    Frame rate                  : 23.976 (24000/1001) FPS
    Color space                 : YUV
    Chroma subsampling          : 4:2:0
    Bit depth                   : 8 bits
    Scan type                   : Progressive
    Bits/(Pixel*Frame)          : 0.073
    Stream size                 : 1.09 GiB (66%)
    Writing library             : x264 core 148 r2708 86b7198
    Encoding settings           : cabac=1 / ref=3 / deblock=1:0:0 / analyse=0x3:0x113 / me=hex / subme=7 / psy=1 / psy_rd=1.00:0.00 / mixed_ref=1 / me_range=16 / chroma_me=1 / trellis=1 / 8x8dct=1 / cqm=0 / deadzone=21,11 / fast_pskip=1 / chroma_qp_offset=-2 / threads=22 / lookahead_threads=3 / sliced_threads=0 / nr=0 / decimate=1 / interlaced=0 / bluray_compat=0 / constrained_intra=0 / bframes=3 / b_pyramid=2 / b_adapt=1 / b_bias=0 / direct=1 / weightb=1 / open_gop=0 / weightp=2 / keyint=240 / keyint_min=24 / scenecut=40 / intra_refresh=0 / rc_lookahead=40 / rc=abr / mbtree=1 / bitrate=1700 / ratetol=1.0 / qcomp=0.60 / qpmin=0 / qpmax=69 / qpstep=4 / vbv_maxrate=62500 / vbv_bufsize=78125 / nal_hrd=none / filler=0 / ip_ratio=1.40 / aq=1:1.00
    Default                     : Yes
    Forced                      : No
    Color range                 : Limited
    Color primaries             : BT.709
    Transfer characteristics    : BT.709
    Matrix coefficients         : BT.709
    Statistics Tags Issue       : mkvmerge v10.0.0 ('To Drown In You') 64bit 2017-07-02 04:40:05 / mkvmerge v10.0.0 ('To Drown In You') 64bit 2017-07-02 04:40:05 / UTC 2017-07-02T03:36:29Z
    FromStats_BitRate           : 1656188
    FromStats_Duration          : 01:37:14.746000000
    FromStats_FrameCount        : 139894
    FromStats_StreamSize        : 1207929685

    Audio #1
    ID                          : 2
    Format                      : AC-3
    Format/Info                 : Audio Coding 3
    Format settings, Endianness : Big
    Codec ID                    : A_AC3
    Duration                    : 1 h 37 min
    Bit rate mode               : Constant
    Bit rate                    : 384 kb/s
    Channel(s)                  : 6 channels
    Channel positions           : Front: L C R, Side: L R, LFE
    Sampling rate               : 48.0 kHz
    Frame rate                  : 31.250 FPS (1536 spf)
    Bit depth                   : 16 bits
    Compression mode            : Lossy
    Delay relative to video     : -5 ms
    Stream size                 : 267 MiB (16%)
    Language                    : Spanish
    Service kind                : Complete Main
    Default                     : Yes
    Forced                      : No
    Statistics Tags Issue       : mkvmerge v10.0.0 ('To Drown In You') 64bit 2017-07-02 04:40:05 / mkvmerge v10.0.0 ('To Drown In You') 64bit 2017-07-02 04:40:05 / UTC 2017-07-02T03:36:29Z
    FromStats_BitRate           : 384000
    FromStats_Duration          : 01:37:14.880000000
    FromStats_FrameCount        : 182340
    FromStats_StreamSize        : 280074240

    Audio #2
    ID                          : 3
    Format                      : AC-3
    Format/Info                 : Audio Coding 3
    Format settings, Endianness : Big
    Codec ID                    : A_AC3
    Duration                    : 1 h 37 min
    Bit rate mode               : Constant
    Bit rate                    : 384 kb/s
    Channel(s)                  : 6 channels
    Channel positions           : Front: L C R, Side: L R, LFE
    Sampling rate               : 48.0 kHz
    Frame rate                  : 31.250 FPS (1536 spf)
    Bit depth                   : 16 bits
    Compression mode            : Lossy
    Delay relative to video     : -5 ms
    Stream size                 : 267 MiB (16%)
    Title                       : Surround
    Language                    : English
    Service kind                : Complete Main
    Default                     : No
    Forced                      : No
    Statistics Tags Issue       : mkvmerge v10.0.0 ('To Drown In You') 64bit 2017-07-02 04:40:05 / mkvmerge v10.0.0 ('To Drown In You') 64bit 2017-07-02 04:40:05 / UTC 2017-07-02T03:36:29Z
    FromStats_BitRate           : 384000
    FromStats_Duration          : 01:37:14.816000000
    FromStats_FrameCount        : 182338
    FromStats_StreamSize        : 280071168

    Text #1
    ID                          : 4
    Format                      : UTF-8
    Codec ID                    : S_TEXT/UTF8
    Codec ID/Info               : UTF-8 Plain Text
    Language                    : Spanish
    Default                     : No
    Forced                      : No
    Statistics Tags Issue       : mkvmerge v10.0.0 ('To Drown In You') 64bit 2017-07-02 04:40:05 / mkvmerge v10.0.0 ('To Drown In You') 64bit 2017-07-02 04:40:05 / UTC 2017-07-02T03:36:29Z
    FromStats_BitRate           : 32
    FromStats_Duration          : 01:31:26.071000000
    FromStats_FrameCount        : 609
    FromStats_StreamSize        : 22428

    Text #2
    ID                          : 5
    Format                      : UTF-8
    Codec ID                    : S_TEXT/UTF8
    Codec ID/Info               : UTF-8 Plain Text
    Title                       : FORZADOS
    Language                    : Spanish
    Default                     : Yes
    Forced                      : No
    Statistics Tags Issue       : mkvmerge v10.0.0 ('To Drown In You') 64bit 2017-07-02 04:40:05 / mkvmerge v10.0.0 ('To Drown In You') 64bit 2017-07-02 04:40:05 / UTC 2017-07-02T03:36:29Z
    FromStats_BitRate           : 0
    FromStats_Duration          : 00:49:00.169000000
    FromStats_FrameCount        : 6
    FromStats_StreamSize        : 170

    Text #3
    ID                          : 6
    Format                      : UTF-8
    Codec ID                    : S_TEXT/UTF8
    Codec ID/Info               : UTF-8 Plain Text
    Language                    : English
    Default                     : No
    Forced                      : No
    Statistics Tags Issue       : mkvmerge v10.0.0 ('To Drown In You') 64bit 2017-07-02 04:40:05 / mkvmerge v10.0.0 ('To Drown In You') 64bit 2017-07-02 04:40:05 / UTC 2017-07-02T03:36:29Z
    FromStats_BitRate           : 30
    FromStats_Duration          : 01:30:06.984000000
    FromStats_FrameCount        : 554
    FromStats_StreamSize        : 20614

    Menu
    00:00:00.000                : :00:00:00.000
    00:01:57.492                : :00:01:57.492
    00:11:47.624                : :00:11:47.624
    00:17:52.071                : :00:17:51.946
    00:25:12.261                : :00:25:12.261
    00:31:00.567                : :00:31:00.567
    00:36:43.118                : :00:36:43.118
    00:42:49.817                : :00:42:49.817
    00:48:20.981                : :00:48:20.981
    00:53:50.853                : :00:53:50.853
    00:58:51.028                : :00:58:51.027
    01:06:58.598                : :01:06:58.598
    01:11:38.836                : :01:11:38.836
    01:15:13.050                : :01:15:13.050
    01:21:41.688                : :01:21:41.688
    01:29:38.874                : :01:29:38.748

  • Peso: 1.65 GB

Sinopsis

Chris Redfield, de la BSAA, cuenta con la ayuda del agente del Gobierno Leon S. Kennedy y la profesora Rebecca Chambers del Instituto Alexander de Biotecnología, para parar a un mercader de la muerte que busca venganza, y amenaza con extender un virus mortal por Nueva York.

Ficha técnica

  • Titulo original: Resident Evil Vendetta
  • Fecha de lanzamiento: 27-05-2017 (Japan)
  • Director: Takanori Tsujimoto
  • Género: Animación, Terror
  • Puntuación: 0.0 0 votos
  • Duración:
    1h 37m

Video trailer de la película

Enlaces de descarga

Descargar Resident Evil Vendetta (2017) 720p Latino
Descargar

dpeliculas

Aportes de DPeliculasHDmega la pass es:dpeliculashdmega.org Aportes de CinemaniaHD la pass es:cinemaniahdd.com
Guardado en : Animación , Terror

Películas relacionadas

  • Aladdín (1992) Full 1080p Latino

    1992
    Aladdín (1992) Full 1080p Latino

    0.0 1 h 30 min 1992

    Basada en el famoso cuento "Aladino y la lámpara maravillosa", la trama se sitúa en el exótico paisaje...

    Director: Tom Shannon

    Género: Animación

    Actores: Vera Lockwood

  • Your name (2016) Full 1080p Latino

    2016
    Your name (2016) Full 1080p Latino

    5.0 1 h 46 min 2016

    La película nos presenta a dos jóvenes, Mitsuha y Taki. La primera es una estudiante de instituto que...

    Director: Makoto Shinkai

    Género: Animación

    Actores: Tani Kanon

  • La autopsia de Jane Doe (2016) Full 1080p Latino

    2016
    La autopsia de Jane Doe (2016) Full 1080p Latino

    0.0 1h 39m 2016

    En una pequeño pueblo de Virginia aparece el cuerpo desnudo y semienterrado de una hermosa joven, misteriosa...

    Director: Sheila McNaught

    Género: FULL 1080p Pesadas

    Actores: Parker Sawyers

Comentarios 4
  • victor - 25 junio, 2017

    me pide la parte3 para seguir descomprimiendo y solo hay 2

    • dpelis

      Administrador
      - 25 junio, 2017

      revise, si las dos partes se descargaron bien.

  • Ramm - 20 junio, 2017

    Esta en ingles con subtitulos al español?

    • dpelis

      Administrador
      - 20 junio, 2017

      en la descriccion dice. audio, latino e ingles. subtitulos latino e ingles. saludos