Resident Evil Vendetta (2017) WEBDL 720p Latino

2.977 vistas
1 estrella2 estrellas3 estrellas4 estrellas5 estrellas (Ninguna valoración todavía)
Cargando…

Información de Resident Evil Vendetta (2017) WEBDL 720p Latino

Datos de la película

  • Calidad: WEBDL
  • Audio: Español Latino AC3 2.0 iTunes - Ingles AC3 5.1 iTunes
  • Subtitulos: Español Latino SRT - Ingles SRT
  • Resolución: 1280x720p
  • Formato: MKV
  • Codec: H.264
  • Encoder: Dpelis
  • Mediainfo: Ver Ver
  • Resident.evil.vendetta.2017.720p.WEBDL.Latino.mkv
    Format                      : Matroska
    Format version              : Version 4 / Version 2
    File size                   : 1.72 GiB
    Duration                    : 1 h 37 min
    Overall bit rate            : 2 527 kb/s
    Movie name                  : DPeliculasHDMega.ORG
    Encoded date                : UTC 2017-06-20 07:01:50
    Writing application         : mkvmerge v10.0.0 ('To Drown In You') 64bit
    Writing library             : libebml v1.3.4 + libmatroska v1.4.5

    Video
    ID                          : 1
    Format                      : AVC
    Format/Info                 : Advanced Video Codec
    Format profile              : [email protected]
    Format settings, CABAC      : Yes
    Format settings, ReFrames   : 4 frames
    Codec ID                    : V_MPEG4/ISO/AVC
    Duration                    : 1 h 37 min
    Bit rate                    : 2 000 kb/s
    Width                       : 1 280 pixels
    Height                      : 720 pixels
    Display aspect ratio        : 16:9
    Frame rate mode             : Constant
    Frame rate                  : 23.976 (24000/1001) FPS
    Color space                 : YUV
    Chroma subsampling          : 4:2:0
    Bit depth                   : 8 bits
    Scan type                   : Progressive
    Bits/(Pixel*Frame)          : 0.091
    Stream size                 : 1.32 GiB (77%)
    Writing library             : x264 core 148 r2708 86b7198
    Encoding settings           : cabac=1 / ref=3 / deblock=1:0:0 / analyse=0x3:0x113 / me=hex / subme=7 / psy=1 / psy_rd=1.00:0.00 / mixed_ref=1 / me_range=16 / chroma_me=1 / trellis=1 / 8x8dct=1 / cqm=0 / deadzone=21,11 / fast_pskip=1 / chroma_qp_offset=-2 / threads=12 / lookahead_threads=2 / sliced_threads=0 / nr=0 / decimate=1 / interlaced=0 / bluray_compat=0 / constrained_intra=0 / bframes=3 / b_pyramid=2 / b_adapt=1 / b_bias=0 / direct=1 / weightb=1 / open_gop=0 / weightp=2 / keyint=240 / keyint_min=24 / scenecut=40 / intra_refresh=0 / rc_lookahead=40 / rc=abr / mbtree=1 / bitrate=2000 / ratetol=1.0 / qcomp=0.60 / qpmin=0 / qpmax=69 / qpstep=4 / vbv_maxrate=62500 / vbv_bufsize=78125 / nal_hrd=none / filler=0 / ip_ratio=1.40 / aq=1:1.00
    Default                     : Yes
    Forced                      : No
    Color range                 : Limited
    Color primaries             : BT.709
    Transfer characteristics    : BT.709
    Matrix coefficients         : BT.709

    Audio #1
    ID                          : 2
    Format                      : AC-3
    Format/Info                 : Audio Coding 3
    Format settings, Endianness : Big
    Codec ID                    : A_AC3
    Duration                    : 1 h 37 min
    Bit rate mode               : Constant
    Bit rate                    : 192 kb/s
    Channel(s)                  : 2 channels
    Channel positions           : Front: L R
    Sampling rate               : 48.0 kHz
    Frame rate                  : 31.250 FPS (1536 spf)
    Bit depth                   : 16 bits
    Compression mode            : Lossy
    Stream size                 : 134 MiB (8%)
    Language                    : Spanish
    Service kind                : Complete Main
    Default                     : Yes
    Forced                      : No

    Audio #2
    ID                          : 3
    Format                      : AC-3
    Format/Info                 : Audio Coding 3
    Format settings, Endianness : Big
    Codec ID                    : A_AC3
    Duration                    : 1 h 37 min
    Bit rate mode               : Constant
    Bit rate                    : 384 kb/s
    Channel(s)                  : 6 channels
    Channel positions           : Front: L C R, Side: L R, LFE
    Sampling rate               : 48.0 kHz
    Frame rate                  : 31.250 FPS (1536 spf)
    Bit depth                   : 16 bits
    Compression mode            : Lossy
    Stream size                 : 267 MiB (15%)
    Language                    : English
    Service kind                : Complete Main
    Default                     : No
    Forced                      : No

    Text #1
    ID                          : 4
    Format                      : UTF-8
    Codec ID                    : S_TEXT/UTF8
    Codec ID/Info               : UTF-8 Plain Text
    Duration                    : 1 h 35 min
    Bit rate                    : 33 b/s
    Count of elements           : 610
    Stream size                 : 23.2 KiB (0%)
    Language                    : Spanish
    Default                     : No
    Forced                      : No

    Text #2
    ID                          : 5
    Format                      : UTF-8
    Codec ID                    : S_TEXT/UTF8
    Codec ID/Info               : UTF-8 Plain Text
    Duration                    : 1 h 35 min
    Bit rate                    : 0 b/s
    Count of elements           : 7
    Stream size                 : 238 Bytes (0%)
    Title                       : FORZADOS
    Language                    : Spanish
    Default                     : Yes
    Forced                      : No

    Text #3
    ID                          : 6
    Format                      : UTF-8
    Codec ID                    : S_TEXT/UTF8
    Codec ID/Info               : UTF-8 Plain Text
    Duration                    : 1 h 36 min
    Bit rate                    : 47 b/s
    Count of elements           : 870
    Stream size                 : 33.4 KiB (0%)
    Language                    : English
    Default                     : No
    Forced                      : No

    Menu
    00:00:00.000                : en:1
    00:01:56.491                : en:2
    00:11:46.623                : en:3
    00:17:50.945                : en:4
    00:25:11.260                : en:5
    00:30:59.566                : en:6
    00:36:42.117                : en:7
    00:42:48.816                : en:8
    00:48:19.980                : en:9
    00:53:49.852                : en:10
    00:58:50.027                : en:11
    01:06:57.597                : en:12
    01:11:37.835                : en:13
    01:15:12.049                : en:14
    01:21:40.687                : en:15
    01:29:37.789                : en:16

  • Peso: 1.72 GB

Sinopsis

Chris Redfield, de la BSAA, cuenta con la ayuda del agente del Gobierno Leon S. Kennedy y la profesora Rebecca Chambers del Instituto Alexander de Biotecnología, para parar a un mercader de la muerte que busca venganza, y amenaza con extender un virus mortal por Nueva York.

Ficha técnica

  • Titulo original: Resident Evil Vendetta
  • Fecha de lanzamiento: 27-05-2017 (Japan)
  • Director: Takanori Tsujimoto
  • Género: Animación, Terror
  • Puntuación: 0.0 0 votos
  • Duración:
    1h 37m

Imágenes, Capturas de la película

Video trailer de la película

Enlaces de descarga

Descargar
Descargar Resident Evil Vendetta (2017) WEBDL 720p Latino
Descargar

dpeliculas

Aportes de DPeliculasHDmega la pass es:dpeliculashdmega.org Aportes de CinemaniaHD la pass es:cinemaniahdd.com
Guardado en : Animación , Terror

PelícuDelas relacionadas

  • Nightmare on Elm street 7 (1994) Full Latino

    1994
    Nightmare on Elm street 7 (1994) Full Latino

    0.0 0h 0m 1994

    Descargar gratis Nightmare on Elm street 7 (1994) Full Latino Mega. La actriz que protagonizó la primera...

    Director: Wes Craven

    Género: Fantasía

    Actores: Yonda Davis

  • Nightmare on Elm street 6 (1991) Full Latino

    1991
    Nightmare on Elm street 6 (1991) Full Latino

    0.0 0h 0m 1991

    Descargar gratis Nightmare on Elm street 6 (1991) Full Latino Mega. Después de diez años, Freddy Krueger...

    Director: Rachel Talalay

    Género: Comedia

    Actores: Yaphet Kotto

  • Nightmare on Elm Street 5 (1989) Full Latino

    1989
    Nightmare on Elm Street 5 (1989) Full Latino

    0.0 0h 0m 1989

    Descargar gratis Nightmare on Elm Street 5 (1989) Full Latino Mega. Alice y Dan viven felices tras haber...

    Director: Stephen Hopkins

    Género: Sagas

    Actores: Will Egan

  • Nightmare on Elm Street 4 (1988) Full Latino

    1988
    Nightmare on Elm Street 4 (1988) Full Latino

    0.0 0h 0m 1988

    Desargar gratis Nightmare on Elm Street 4 (1988) Full Latino Mega. Freddy Krueger vuelve a la vida después...

    Director: Renny Harlin

    Género: Sagas

    Actores: Wanda Bursey

  • Nightmare on Elm Street 3 (1987) Full Latino

    1987
    Nightmare on Elm Street 3 (1987) Full Latino

    0.0 0h 0m 1987

    Descargar gratis Nightmare on Elm Street 3 (1987) Full Latino Mega. Años después de los incidentes,...

    Director: Chuck Russell

    Género: Sagas

    Actores: Zsa Zsa Gábor

Comentarios 2
  • Ramm - 20 junio, 2017

    Esta en ingles con subtitulos al español?

    • dpelis - 20 junio, 2017

      en la descriccion dice. audio, latino e ingles. subtitulos latino e ingles. saludos