Resident Evil Vendetta (2017) 1080p Latino

10.455 vistas
1 estrella2 estrellas3 estrellas4 estrellas5 estrellas (3 votos, promedio: 5,00 de 5)
Cargando…

Información de Resident Evil Vendetta (2017) 1080p Latino

Datos de la película

  • Calidad: 1080p
  • Audio: Español Latino AC3 5.1 BLURAY - Ingles AC3 5.1 BLURAY
  • Subtitulos: Español Latino SRT - Ingles SRT
  • Resolución: 1920x1080p
  • Formato: MKV
  • Codec: H.264
  • Encoder: Dpelis
  • Mediainfo: Ver Ver
  • Resident.evil.vendetta.2017.1080p.latino.mkv
    Format                      : Matroska
    Format version              : Version 4 / Version 2
    File size                   : 2.83 GiB
    Duration                    : 1 h 37 min
    Overall bit rate            : 4 164 kb/s
    Encoded date                : UTC 2017-07-02 04:42:46 / UTC 2017-07-02T03:06:16Z
    Writing application         : mkvmerge v10.0.0 ('To Drown In You') 64bit
    Writing library             : libebml v1.3.4 + libmatroska v1.4.5 / Lavf57.7.2

    Video
    ID                          : 1
    Format                      : AVC
    Format/Info                 : Advanced Video Codec
    Format profile              : [email protected]
    Format settings, CABAC      : Yes
    Format settings, ReFrames   : 4 frames
    Codec ID                    : V_MPEG4/ISO/AVC
    Duration                    : 1 h 37 min
    Bit rate                    : 3 313 kb/s
    Nominal bit rate            : 3 500 kb/s
    Width                       : 1 920 pixels
    Height                      : 1 080 pixels
    Display aspect ratio        : 16:9
    Frame rate mode             : Constant
    Frame rate                  : 23.976 (24000/1001) FPS
    Color space                 : YUV
    Chroma subsampling          : 4:2:0
    Bit depth                   : 8 bits
    Scan type                   : Progressive
    Bits/(Pixel*Frame)          : 0.067
    Stream size                 : 2.25 GiB (80%)
    Writing library             : x264 core 148 r2708 86b7198
    Encoding settings           : cabac=1 / ref=3 / deblock=1:0:0 / analyse=0x3:0x113 / me=hex / subme=7 / psy=1 / psy_rd=1.00:0.00 / mixed_ref=1 / me_range=16 / chroma_me=1 / trellis=1 / 8x8dct=1 / cqm=0 / deadzone=21,11 / fast_pskip=1 / chroma_qp_offset=-2 / threads=34 / lookahead_threads=5 / sliced_threads=0 / nr=0 / decimate=1 / interlaced=0 / bluray_compat=0 / constrained_intra=0 / bframes=3 / b_pyramid=2 / b_adapt=1 / b_bias=0 / direct=1 / weightb=1 / open_gop=0 / weightp=2 / keyint=240 / keyint_min=24 / scenecut=40 / intra_refresh=0 / rc_lookahead=40 / rc=abr / mbtree=1 / bitrate=3500 / ratetol=1.0 / qcomp=0.60 / qpmin=0 / qpmax=69 / qpstep=4 / vbv_maxrate=62500 / vbv_bufsize=78125 / nal_hrd=none / filler=0 / ip_ratio=1.40 / aq=1:1.00
    Default                     : Yes
    Forced                      : No
    Color range                 : Limited
    Color primaries             : BT.709
    Transfer characteristics    : BT.709
    Matrix coefficients         : BT.709
    Statistics Tags Issue       : mkvmerge v10.0.0 ('To Drown In You') 64bit 2017-07-02 04:42:46 / mkvmerge v10.0.0 ('To Drown In You') 64bit 2017-07-02 04:42:46 / UTC 2017-07-02T03:06:16Z
    FromStats_BitRate           : 3393742
    FromStats_Duration          : 01:37:14.746000000
    FromStats_FrameCount        : 139894
    FromStats_StreamSize        : 2475203013

    Audio #1
    ID                          : 2
    Format                      : AC-3
    Format/Info                 : Audio Coding 3
    Format settings, Endianness : Big
    Codec ID                    : A_AC3
    Duration                    : 1 h 37 min
    Bit rate mode               : Constant
    Bit rate                    : 384 kb/s
    Channel(s)                  : 6 channels
    Channel positions           : Front: L C R, Side: L R, LFE
    Sampling rate               : 48.0 kHz
    Frame rate                  : 31.250 FPS (1536 spf)
    Bit depth                   : 16 bits
    Compression mode            : Lossy
    Delay relative to video     : -5 ms
    Stream size                 : 267 MiB (9%)
    Language                    : Spanish
    Service kind                : Complete Main
    Default                     : Yes
    Forced                      : No
    Statistics Tags Issue       : mkvmerge v10.0.0 ('To Drown In You') 64bit 2017-07-02 04:42:46 / mkvmerge v10.0.0 ('To Drown In You') 64bit 2017-07-02 04:42:46 / UTC 2017-07-02T03:06:16Z
    FromStats_BitRate           : 384000
    FromStats_Duration          : 01:37:14.880000000
    FromStats_FrameCount        : 182340
    FromStats_StreamSize        : 280074240

    Audio #2
    ID                          : 3
    Format                      : AC-3
    Format/Info                 : Audio Coding 3
    Format settings, Endianness : Big
    Codec ID                    : A_AC3
    Duration                    : 1 h 37 min
    Bit rate mode               : Constant
    Bit rate                    : 384 kb/s
    Channel(s)                  : 6 channels
    Channel positions           : Front: L C R, Side: L R, LFE
    Sampling rate               : 48.0 kHz
    Frame rate                  : 31.250 FPS (1536 spf)
    Bit depth                   : 16 bits
    Compression mode            : Lossy
    Delay relative to video     : -5 ms
    Stream size                 : 267 MiB (9%)
    Title                       : Surround
    Language                    : English
    Service kind                : Complete Main
    Default                     : No
    Forced                      : No
    Statistics Tags Issue       : mkvmerge v10.0.0 ('To Drown In You') 64bit 2017-07-02 04:42:46 / mkvmerge v10.0.0 ('To Drown In You') 64bit 2017-07-02 04:42:46 / UTC 2017-07-02T03:06:16Z
    FromStats_BitRate           : 384000
    FromStats_Duration          : 01:37:14.816000000
    FromStats_FrameCount        : 182338
    FromStats_StreamSize        : 280071168

    Text #1
    ID                          : 4
    Format                      : UTF-8
    Codec ID                    : S_TEXT/UTF8
    Codec ID/Info               : UTF-8 Plain Text
    Language                    : Spanish
    Default                     : No
    Forced                      : No
    Statistics Tags Issue       : mkvmerge v10.0.0 ('To Drown In You') 64bit 2017-07-02 04:42:46 / mkvmerge v10.0.0 ('To Drown In You') 64bit 2017-07-02 04:42:46 / UTC 2017-07-02T03:06:16Z
    FromStats_BitRate           : 32
    FromStats_Duration          : 01:31:26.071000000
    FromStats_FrameCount        : 609
    FromStats_StreamSize        : 22428

    Text #2
    ID                          : 5
    Format                      : UTF-8
    Codec ID                    : S_TEXT/UTF8
    Codec ID/Info               : UTF-8 Plain Text
    Title                       : FORZADOS
    Language                    : Spanish
    Default                     : Yes
    Forced                      : No
    Statistics Tags Issue       : mkvmerge v10.0.0 ('To Drown In You') 64bit 2017-07-02 04:42:46 / mkvmerge v10.0.0 ('To Drown In You') 64bit 2017-07-02 04:42:46 / UTC 2017-07-02T03:06:16Z
    FromStats_BitRate           : 0
    FromStats_Duration          : 00:49:00.169000000
    FromStats_FrameCount        : 6
    FromStats_StreamSize        : 170

    Text #3
    ID                          : 6
    Format                      : UTF-8
    Codec ID                    : S_TEXT/UTF8
    Codec ID/Info               : UTF-8 Plain Text
    Language                    : English
    Default                     : No
    Forced                      : No
    Statistics Tags Issue       : mkvmerge v10.0.0 ('To Drown In You') 64bit 2017-07-02 04:42:46 / mkvmerge v10.0.0 ('To Drown In You') 64bit 2017-07-02 04:42:46 / UTC 2017-07-02T03:06:16Z
    FromStats_BitRate           : 30
    FromStats_Duration          : 01:30:06.984000000
    FromStats_FrameCount        : 554
    FromStats_StreamSize        : 20614

    Menu
    00:00:00.000                : :00:00:00.000
    00:01:57.492                : :00:01:57.492
    00:11:47.624                : :00:11:47.624
    00:17:52.071                : :00:17:51.946
    00:25:12.261                : :00:25:12.261
    00:31:00.567                : :00:31:00.567
    00:36:43.118                : :00:36:43.118
    00:42:49.817                : :00:42:49.817
    00:48:20.981                : :00:48:20.981
    00:53:50.853                : :00:53:50.853
    00:58:51.028                : :00:58:51.027
    01:06:58.598                : :01:06:58.598
    01:11:38.836                : :01:11:38.836
    01:15:13.050                : :01:15:13.050
    01:21:41.688                : :01:21:41.688
    01:29:38.874                : :01:29:38.748

  • Peso: 2.83 GB

Sinopsis

Descargar Pelicula Resident Evil Vendetta 1080p Latino, La trama se centra en Rebecca Chambers, quien ahora es profesora de universidad y se encuentra investigando un misterioso incidente en donde los muertos están regresando a la vida, ello la lleva a descubrir un nuevo tipo de virus y eventualmente la cura del mismo…

A su vez, Chris Redfield está tras la pista de una organización secreta que vende Armas Biológicas. Todo ello juntará a Chris y a Rebbeca con Leon S. Kennedy.

Ficha técnica

  • Titulo original: Resident Evil Vendetta
  • Fecha de lanzamiento: 27-05-2017 (Japan)
  • Director: Takanori Tsujimoto
  • Género: Animación, Terror
  • Puntuación: 5.0 3 votos
  • Duración:
    1h 37m

Imágenes, Capturas de la película

Video trailer de la película

Enlaces de descarga

Descargar Resident Evil Vendetta (2017) 1080p Latino
Descargar

dpeliculas

Aportes de DPeliculasHDmega la pass es:dpeliculashdmega.org Aportes de CinemaniaHD la pass es:cinemaniahdd.com
Guardado en : Animación , Terror

PelícuDelas relacionadas

  • Un cigüeña en Apuros (2017) 1080p Latino

    2017
    Un cigüeña en Apuros (2017) 1080p Latino

    0.0 1h 25m 2017

    Descargar Un cigüeña en Apuros hd latino Una pelicula familiar,  Richard –un gorrión– ha sido...

    Director: Toby Genkel

    Género: Animación

    Actores: Tilman Döbler

  • La torre oscura (2017) Full 1080p Latino

    2017
    La torre oscura (2017) Full 1080p Latino

    0.0 1 h 34 min 2017

    Un paisaje del viejo oeste perteneciente a un mundo moribundo, en el cual el tiempo no corre de forma...

    Director: Susan Malerstein

    Género: Acción

    Actores: Zak Rowlands

  • La torre oscura (2017) 1080p Latino

    2017
    La torre oscura (2017) 1080p Latino

    0.0 1 h 34 min 2017

    La historia gira en torno a Roland Deschain, último miembro de una orden de caballería denominada Pistoleros....

    Director: Susan Malerstein

    Género: Acción

    Actores: Zak Rowlands

  • Annabelle: Creation (2017) Full 1080p Latino

    2017
    Annabelle: Creation (2017) Full 1080p Latino

    4.5 1 h 49 min 2017

    Década de los 50. Algunos años después de que Samuel Mullins (Anthony LaPaglia), un fabricante de...

    Director: Jan McWilliams

    Género: Estrenos

    Actores: Ward Horton

  • Llega de noche (2017) Full 1080p Latino

    2017
    Llega de noche (2017) Full 1080p Latino

    1.0 1 h 31 min 2017

    Paul es un padre de familia (Joel Edgerton) que vive junto a su Sarah (Carmen Ejogo) y su hijo adolescente...

    Director: Trey Edward Shults

    Género: Misterio

    Actores: Riley Keough

Comentarios 6
  • edwiin LopeZz - 08 agosto, 2017

    Tube un error cuando descomprimi la 3ra parte me dice error de contraseña y no me deja ver la pelicula la contraseña es la de dpeliculashdmega.org

    • dpelis

      Administrador
      - 08 agosto, 2017

      si bajo esas parte de mega baja de otro servidor la parte erronea

  • Aldair Jesus - 21 junio, 2017

    Ojala retomen la saga de Star Trek. De la antigua CinemaniaHD alcance a descargar Star Trek En La Oscuridad y Star Trek Sin Limites en los ultimos ripeos que habia hecho, pero me toco descargar la de 2009 en la seccion Star Trek Saga Completa, esta pesa 10 GB y creo que traia audio de DVD y sin subs PGS, solo los SubRip.

    • dpelis

      Administrador
      - 25 junio, 2017

      tomaremos en cuenta estimado

  • ofcolom - 20 junio, 2017

    Enlaces de mega caidos…

    • dpelis

      Administrador
      - 20 junio, 2017

      enlaces online. dificil q mueran enlaces de mega. debe usar el tutorial para descargar, y si le da error es porq ya consumio limite de descarga con mega