Resident Evil Vendetta (2017) WEBDL 1080p Latino

4.413 vistas
1 estrella2 estrellas3 estrellas4 estrellas5 estrellas (2 votos, promedio: 5,00 de 5)
Cargando…

Información de Resident Evil Vendetta (2017) WEBDL 1080p Latino

Datos de la película

  • Calidad: WEBDL
  • Audio: Español Latino AC3 2.0 iTunes - Ingles AC3 5.1 iTunes
  • Subtitulos: Español Latino SRT - Ingles SRT
  • Resolución: 1920x1080p
  • Formato: MKV
  • Codec: H.264
  • Encoder: Dpelis
  • Mediainfo: Ver Ver
  • Resident.Evil.Vendetta.2017.1080p.WEB.Latino.mkv
    Format                      : Matroska
    Format version              : Version 4 / Version 2
    File size                   : 3.93 GiB
    Duration                    : 1 h 37 min
    Overall bit rate            : 5 781 kb/s
    Movie name                  : DPeliculasHDMega.ORG
    Encoded date                : UTC 2017-06-20 06:55:40
    Writing application         : mkvmerge v10.0.0 ('To Drown In You') 64bit
    Writing library             : libebml v1.3.4 + libmatroska v1.4.5
    Cover                       : Yes
    Attachments                 : cover.jpg / cover_land.jpg / small_cover.jpg / small_cover_land.jpg

    Video
    ID                          : 1
    Format                      : AVC
    Format/Info                 : Advanced Video Codec
    Format profile              : [email protected]
    Format settings, CABAC      : Yes
    Format settings, ReFrames   : 4 frames
    Codec ID                    : V_MPEG4/ISO/AVC
    Duration                    : 1 h 37 min
    Bit rate                    : 5 203 kb/s
    Width                       : 1 920 pixels
    Height                      : 1 080 pixels
    Display aspect ratio        : 16:9
    Frame rate mode             : Constant
    Frame rate                  : 23.976 FPS
    Color space                 : YUV
    Chroma subsampling          : 4:2:0
    Bit depth                   : 8 bits
    Scan type                   : Progressive
    Bits/(Pixel*Frame)          : 0.105
    Stream size                 : 3.53 GiB (90%)
    Language                    : English
    Default                     : Yes
    Forced                      : No
    Color range                 : Limited
    Color primaries             : BT.709
    Transfer characteristics    : BT.709
    Matrix coefficients         : BT.709

    Audio #1
    ID                          : 2
    Format                      : AC-3
    Format/Info                 : Audio Coding 3
    Format settings, Endianness : Big
    Codec ID                    : A_AC3
    Duration                    : 1 h 37 min
    Bit rate mode               : Constant
    Bit rate                    : 192 kb/s
    Channel(s)                  : 2 channels
    Channel positions           : Front: L R
    Sampling rate               : 48.0 kHz
    Frame rate                  : 31.250 FPS (1536 spf)
    Bit depth                   : 16 bits
    Compression mode            : Lossy
    Stream size                 : 134 MiB (3%)
    Language                    : Spanish
    Service kind                : Complete Main
    Default                     : Yes
    Forced                      : No

    Audio #2
    ID                          : 3
    Format                      : AC-3
    Format/Info                 : Audio Coding 3
    Format settings, Endianness : Big
    Codec ID                    : A_AC3
    Duration                    : 1 h 37 min
    Bit rate mode               : Constant
    Bit rate                    : 384 kb/s
    Channel(s)                  : 6 channels
    Channel positions           : Front: L C R, Side: L R, LFE
    Sampling rate               : 48.0 kHz
    Frame rate                  : 31.250 FPS (1536 spf)
    Bit depth                   : 16 bits
    Compression mode            : Lossy
    Stream size                 : 267 MiB (7%)
    Language                    : English
    Service kind                : Complete Main
    Default                     : No
    Forced                      : No

    Text #1
    ID                          : 4
    Format                      : UTF-8
    Codec ID                    : S_TEXT/UTF8
    Codec ID/Info               : UTF-8 Plain Text
    Duration                    : 1 h 35 min
    Bit rate                    : 33 b/s
    Count of elements           : 610
    Stream size                 : 23.2 KiB (0%)
    Language                    : Spanish
    Default                     : No
    Forced                      : No

    Text #2
    ID                          : 5
    Format                      : UTF-8
    Codec ID                    : S_TEXT/UTF8
    Codec ID/Info               : UTF-8 Plain Text
    Duration                    : 1 h 36 min
    Bit rate                    : 47 b/s
    Count of elements           : 870
    Stream size                 : 33.4 KiB (0%)
    Language                    : English
    Default                     : No
    Forced                      : No

    Text #3
    ID                          : 6
    Format                      : UTF-8
    Codec ID                    : S_TEXT/UTF8
    Codec ID/Info               : UTF-8 Plain Text
    Duration                    : 1 h 35 min
    Bit rate                    : 0 b/s
    Count of elements           : 7
    Stream size                 : 238 Bytes (0%)
    Title                       : FORZADOS
    Language                    : Spanish
    Default                     : Yes
    Forced                      : No

    Menu
    00:00:00.000                : en:1
    00:01:56.491                : en:2
    00:11:46.622                : en:3
    00:17:50.944                : en:4
    00:25:11.259                : en:5
    00:30:59.565                : en:6
    00:36:42.115                : en:7
    00:42:48.814                : en:8
    00:48:19.978                : en:9
    00:53:49.849                : en:10
    00:58:50.024                : en:11
    01:06:57.594                : en:12
    01:11:37.831                : en:13
    01:15:12.044                : en:14
    01:21:40.681                : en:15
    01:29:37.741                : en:16

  • Peso: 3.93 GB

Sinopsis

Descargar Pelicula Resident Evil Vendetta WEBDL 1080p Latino, La trama se centra en Rebecca Chambers, quien ahora es profesora de universidad y se encuentra investigando un misterioso incidente en donde los muertos están regresando a la vida, ello la lleva a descubrir un nuevo tipo de virus y eventualmente la cura del mismo…

A su vez, Chris Redfield está tras la pista de una organización secreta que vende Armas Biológicas. Todo ello juntará a Chris y a Rebbeca con Leon S. Kennedy.

Ficha técnica

  • Titulo original: Resident Evil Vendetta
  • Fecha de lanzamiento: 27-05-2017 (Japan)
  • Director: Takanori Tsujimoto
  • Género: Animación, Terror
  • Puntuación: 5.0 2 votos
  • Duración:
    1h 37m

Imágenes, Capturas de la película

Video trailer de la película

Enlaces de descarga

Descargar
Descargar Resident Evil Vendetta (2017) WEBDL 1080p Latino
Descargar

dpeliculas

Aportes de DPeliculasHDmega la pass es:dpeliculashdmega.org Aportes de CinemaniaHD la pass es:cinemaniahdd.com
Guardado en : Animación , Terror

PelícuDelas relacionadas

  • Sahara (2017) 1080p Latino

    2017
    Sahara (2017) 1080p Latino

    1.0 1h 19m 2017

    Cansado de ser el chivo expiatorio de su comunidad, entreabierta una serpiente y su amigo Pitt, escorpión,...

    Director: Pierre Coré

    Género: Animación

    Actores: Vincent Lacoste

  • Sahara (2017) 720p Latino

    2017
    Sahara (2017) 720p Latino

    0.0 1h 24m 2017

    Descargar Pelicula Sahara 2017 hd 720p latino,Cansados de ser el chivo expiatorio de su comunidad, Ajar...

    Director: Pierre Coré

    Género: Animación

    Actores: Vincent Lacoste

  • Los Pitufos: La aldea escondida (2017) WEBDL 720p Latino

    2017
    Los Pitufos: La aldea escondida (2017) WEBDL 720p Latino

    5.0 1h 35m 2017

    A Pitufina le parece que todos los demás habitantes de la aldea tienen un propósito: Papá Pitufo (dirigir),...

    Director: Kelly Asbury

    Género: Animación

    Actores: Tituss Burgess

Comentarios 2
  • ofcolom - 20 Junio, 2017

    Enlaces de mega caidos…

    • dpelis

      Administrador
      - 20 Junio, 2017

      enlaces online. dificil q mueran enlaces de mega. debe usar el tutorial para descargar, y si le da error es porq ya consumio limite de descarga con mega