Resident Evil: El capítulo final (2017) Full 1080p Latino

5.746 vistas
1 estrella2 estrellas3 estrellas4 estrellas5 estrellas (11 votos, promedio: 4,18 de 5)
Cargando…

Información de Resident Evil: El capítulo final (2017) Full 1080p Latino

Resident Evil: Capítulo Final 1080p latino

Datos de la película

  • Calidad: Full 1080p
  • Audio: Español Latino AC3 5.1 BLURAY - Ingles DTS 5.1 BLURAY
  • Subtitulos: Español Latino PGS - Ingles PGS
  • Resolución: 1920x1080p
  • Formato: MKV
  • Codec: H.264
  • Encoder: Dpelis
  • Mediainfo: Ver Ver
  • Resident Evil El capítulo final 2017 HD FULL 1080p Latino.mkv
    Format                      : Matroska
    Format version              : Version 4 / Version 2
    File size                   : 4.23 GiB
    Duration                    : 1 h 46 min
    Overall bit rate            : 5 688 kb/s
    Movie name                  : DPeliculasHDMega.ORG
    Encoded date                : UTC 2017-04-26 18:54:33 / UTC 2017-04-26T06:28:55Z
    Writing application         : mkvmerge v10.0.0 ('To Drown In You') 64bit
    Writing library             : libebml v1.3.4 + libmatroska v1.4.5 / Lavf57.7.2

    Video
    ID                          : 1
    Format                      : AVC
    Format/Info                 : Advanced Video Codec
    Format profile              : [email protected]
    Format settings, CABAC      : Yes
    Format settings, ReFrames   : 4 frames
    Codec ID                    : V_MPEG4/ISO/AVC
    Duration                    : 1 h 46 min
    Bit rate                    : 3 426 kb/s
    Width                       : 1 920 pixels
    Height                      : 1 080 pixels
    Display aspect ratio        : 16:9
    Frame rate mode             : Constant
    Frame rate                  : 23.976 (24000/1001) FPS
    Color space                 : YUV
    Chroma subsampling          : 4:2:0
    Bit depth                   : 8 bits
    Scan type                   : Progressive
    Bits/(Pixel*Frame)          : 0.069
    Stream size                 : 2.55 GiB (60%)
    Writing library             : x264 core 148 r2708 86b7198
    Encoding settings           : cabac=1 / ref=4 / deblock=1:0:0 / analyse=0x3:0x133 / me=esa / subme=10 / psy=1 / psy_rd=1.00:0.00 / mixed_ref=1 / me_range=24 / chroma_me=1 / trellis=2 / 8x8dct=1 / cqm=0 / deadzone=21,11 / fast_pskip=1 / chroma_qp_offset=-2 / threads=12 / lookahead_threads=2 / sliced_threads=0 / nr=0 / decimate=1 / interlaced=0 / bluray_compat=0 / constrained_intra=0 / bframes=8 / b_pyramid=2 / b_adapt=2 / b_bias=0 / direct=3 / weightb=1 / open_gop=0 / weightp=2 / keyint=240 / keyint_min=24 / scenecut=40 / intra_refresh=0 / rc_lookahead=60 / rc=crf / mbtree=1 / crf=20.0 / qcomp=0.60 / qpmin=0 / qpmax=69 / qpstep=4 / vbv_maxrate=62500 / vbv_bufsize=78125 / crf_max=0.0 / nal_hrd=none / filler=0 / ip_ratio=1.40 / aq=1:1.00
    Default                     : Yes
    Forced                      : No
    Color range                 : Limited
    Color primaries             : BT.709
    Transfer characteristics    : BT.709
    Matrix coefficients         : BT.709
    Statistics Tags Issue       : mkvmerge v10.0.0 ('To Drown In You') 64bit 2017-04-26 18:54:33 / mkvmerge v10.0.0 ('To Drown In You') 64bit 2017-04-26 18:54:33 / UTC 2017-04-26T06:28:55Z
    FromStats_BitRate           : 3507842
    FromStats_Duration          : 01:46:33.054000000
    FromStats_FrameCount        : 153279
    FromStats_StreamSize        : 2803228566

    Audio #1
    ID                          : 2
    Format                      : AC-3
    Format/Info                 : Audio Coding 3
    Format settings, Endianness : Big
    Codec ID                    : A_AC3
    Duration                    : 1 h 46 min
    Bit rate mode               : Constant
    Bit rate                    : 640 kb/s
    Channel(s)                  : 6 channels
    Channel positions           : Front: L C R, Side: L R, LFE
    Sampling rate               : 48.0 kHz
    Frame rate                  : 31.250 FPS (1536 spf)
    Bit depth                   : 16 bits
    Compression mode            : Lossy
    Stream size                 : 488 MiB (11%)
    Title                       : Surround
    Language                    : Spanish
    Service kind                : Complete Main
    Default                     : Yes
    Forced                      : No
    Statistics Tags Issue       : mkvmerge v10.0.0 ('To Drown In You') 64bit 2017-04-26 18:54:33 / mkvmerge v10.0.0 ('To Drown In You') 64bit 2017-04-26 18:54:33 / UTC 2017-04-26T06:28:55Z
    FromStats_BitRate           : 640000
    FromStats_Duration          : 01:46:33.056000000
    FromStats_FrameCount        : 199783
    FromStats_StreamSize        : 511444480

    Audio #2
    ID                          : 3
    Format                      : DTS
    Format/Info                 : Digital Theater Systems
    Mode                        : 16
    Format settings, Endianness : Big
    Codec ID                    : A_DTS
    Duration                    : 1 h 46 min
    Bit rate mode               : Constant
    Bit rate                    : 1 509 kb/s
    Channel(s)                  : 6 channels
    Channel positions           : Front: L C R, Side: L R, LFE
    Sampling rate               : 48.0 kHz
    Frame rate                  : 93.750 FPS (512 spf)
    Bit depth                   : 16 bits
    Compression mode            : Lossy
    Stream size                 : 1.12 GiB (27%)
    Title                       : Surround
    Language                    : English
    Default                     : No
    Forced                      : No
    Statistics Tags Issue       : mkvmerge v10.0.0 ('To Drown In You') 64bit 2017-04-26 18:54:33 / mkvmerge v10.0.0 ('To Drown In You') 64bit 2017-04-26 18:54:33 / UTC 2017-04-26T06:28:55Z
    FromStats_BitRate           : 1508999
    FromStats_Duration          : 01:46:33.046000000
    FromStats_FrameCount        : 599348
    FromStats_StreamSize        : 1205888176

    Text #1
    ID                          : 4
    Format                      : PGS
    Muxing mode                 : zlib
    Codec ID                    : S_HDMV/PGS
    Codec ID/Info               : Picture based subtitle format used on BDs/HD-DVDs
    Language                    : Spanish
    Default                     : No
    Forced                      : No
    Statistics Tags Issue       : mkvmerge v10.0.0 ('To Drown In You') 64bit 2017-04-26 18:54:33 / mkvmerge v10.0.0 ('To Drown In You') 64bit 2017-04-26 18:54:33 / UTC 2017-04-26T06:28:55Z
    FromStats_BitRate           : 12569
    FromStats_Duration          : 01:45:09.720000000
    FromStats_FrameCount        : 1503
    FromStats_StreamSize        : 9913472

    Text #2
    ID                          : 5
    Format                      : PGS
    Muxing mode                 : zlib
    Codec ID                    : S_HDMV/PGS
    Codec ID/Info               : Picture based subtitle format used on BDs/HD-DVDs
    Language                    : English
    Default                     : No
    Forced                      : No
    Statistics Tags Issue       : mkvmerge v10.0.0 ('To Drown In You') 64bit 2017-04-26 18:54:33 / mkvmerge v10.0.0 ('To Drown In You') 64bit 2017-04-26 18:54:33 / UTC 2017-04-26T06:28:55Z
    FromStats_BitRate           : 16430
    FromStats_Duration          : 01:45:30.324000000
    FromStats_FrameCount        : 2401
    FromStats_StreamSize        : 13001179

    Text #3
    ID                          : 6
    Format                      : UTF-8
    Codec ID                    : S_TEXT/UTF8
    Codec ID/Info               : UTF-8 Plain Text
    Title                       : Forzados
    Language                    : Spanish
    Default                     : Yes
    Forced                      : No
    Statistics Tags Issue       : mkvmerge v10.0.0 ('To Drown In You') 64bit 2017-04-26 18:54:33 / mkvmerge v10.0.0 ('To Drown In You') 64bit 2017-04-26 18:54:33 / UTC 2017-04-26T06:28:55Z
    FromStats_BitRate           : 0
    FromStats_Duration          : 01:27:54.249000000
    FromStats_FrameCount        : 19
    FromStats_StreamSize        : 490

    Menu
    00:00:00.000                : :Chapter 1
    00:05:39.339                : :Chapter 2
    00:11:18.178                : :Chapter 3
    00:17:00.102                : :Chapter 4
    00:22:36.146                : :Chapter 5
    00:27:21.932                : :Chapter 6
    00:33:35.889                : :Chapter 7
    00:40:43.191                : :Chapter 8
    00:46:29.328                : :Chapter 9
    00:53:11.980                : :Chapter 10
    01:03:11.871                : :Chapter 11
    01:10:41.070                : :Chapter 12
    01:15:30.776                : :Chapter 13
    01:22:51.008                : :Chapter 14
    01:28:26.092                : :Chapter 15
    01:35:00.361                : :Chapter 16

  • Peso: 4.23 GB

Sinopsis

Resident Evil: The Final Chapter HD FULL 1080p Latino es una película de de ciencia ficción, acción y terror escrita y dirigida por Paul W. S. Anderson. Es la secuela de Resident Evil: Retribution (2012) y es la sexta y última película de la saga de Resident Evil, de la que está basada libremente en Resident Evil de Capcom. Las estrellas de la película son: Milla Jovovich, Ali Larter, Shawn Roberts, Ruby Rose, Eoin Macken, William Levy, y Iain Glen. Se estrenó el 23 de diciembre de 2016, en Japón6 y el 27 de enero de 2017 en Estados Unidos en 2D, 3D E IMAX 3D.
La película recibió críticas mixtas y ha recaudado un total $312 millones en todo el mundo.7

 

Nueva película de Resident Evil. En esta ocasión, el Presidente de los Estados Unidos, tratando de detener un ataque bioterrorista, decidido revelar la verdad sobre el caso de Raccoon City, que tuvo lugar en el año 1998. Sin embargo, el lugar es atacado por zombies y querido amigo y asesorar al el presidente es difícil que tenga que tomar una decisión: se debe tratar a su Presidente para descubrir que también estaba infectado con un virus extraño.

Ficha técnica

Imágenes, Capturas de la película

Video trailer de la película

Enlaces de descarga

Descargar Resident Evil: El capítulo final (2017) Full 1080p Latino
Descargar

dpeliculas

Aportes de DPeliculasHDmega la pass es:dpeliculashdmega.org Aportes de CinemaniaHD la pass es:cinemaniahdd.com

PelícuDelas relacionadas

  • The Recall (2017) 1080p Latino

    2017
    The Recall (2017) 1080p Latino

    0.0 1h 31m 2017

    The Recall Latino empieza como si de un slasher juvenil se tratase, con un grupo de amigos de vacaciones...

    Director: Mauro Borreli

    Género: Ciencia ficción

    Actores: Wesley Snipes

  • La momia (2017) Webdl 1080p Latino

    2017
    La momia (2017) Webdl 1080p Latino

    4.0 1h 50m 2017

    Descargar La momia 2017 1080p webdl  Latino, esta pelicula estara disponible con audio latino final...

    Director: Jo Beckett

    Género: Acción

    Actores: Vera Chok

  • Batman & Harley Quinn (2017) Full Latino

    2017
    Batman & Harley Quinn (2017) Full Latino

    0.0 0h 0m 2017

    Descargar gratis Batman & Harley Quinn (2017) Full Latino. Batman y Nighwing debrán unir fuerzas...

    Director: Sam Liu

    Género: Acción

    Actores: Trevor Devall

Comentarios 7
  • John - 14 Mayo, 2017

    Links caidos de mega 🙁

  • gaston - 27 Abril, 2017

    gracias x fin en buena calidad!!!!!! sigan asi saludos

  • Cifrid - 26 Abril, 2017

    Hola cual de las verciones entre plateada y negra trajo los sub srt? Sea dentro o fuera

    • dpelis

      Administrador
      - 26 Abril, 2017

      plateada, le agrge, pero por ahi deje los srt en la negra.

  • tr4ul05

    Donador Bajo
    - 26 Abril, 2017

    Excelente! Quedo pendiente al 1Link Mega! No está para VIP. Un saludo!!

    • dpelis

      Administrador
      - 26 Abril, 2017

      agregado