Resident Evil: El capítulo final (2017) 3D OU Full 1080p Latino

1.779 vistas
1 estrella2 estrellas3 estrellas4 estrellas5 estrellas (2 votos, promedio: 3,00 de 5)
Cargando…

Información de Resident Evil: El capítulo final (2017) 3D OU Full 1080p Latino

Datos de la película

  • Calidad: Full 1080p
  • Audio: Español Latino AC3 5.1 BLURAY - Ingles DTS 5.1 BLURAY
  • Subtitulos: Español Latino PGS - Ingles PGS
  • Resolución: 1920x1080p
  • Formato: MKV
  • Codec: H.264
  • Encoder: Dpelis
  • Mediainfo: Ver Ver
  • Resident Evil El capítulo final 2017 3D OU HD FULL 1080p Latino.mkv
    Format                      : Matroska
    Format version              : Version 4 / Version 2
    File size                   : 7.63 GiB
    Duration                    : 1 h 46 min
    Overall bit rate            : 10.2 Mb/s
    Movie name                  : DPeliculasHDMega.ORG
    Encoded date                : UTC 2017-04-26 20:24:28
    Writing application         : mkvmerge v10.0.0 ('To Drown In You') 64bit
    Writing library             : libebml v1.3.4 + libmatroska v1.4.5

    Video
    ID                          : 1
    Format                      : AVC
    Format/Info                 : Advanced Video Codec
    Format profile              : [email protected]
    Format settings, CABAC      : Yes
    Format settings, ReFrames   : 2 frames
    Codec ID                    : V_MPEG4/ISO/AVC
    Duration                    : 1 h 46 min
    Bit rate                    : 8 088 kb/s
    Width                       : 1 920 pixels
    Height                      : 1 080 pixels
    Display aspect ratio        : 16:9
    Frame rate mode             : Constant
    Frame rate                  : 23.976 (24000/1001) FPS
    Color space                 : YUV
    Chroma subsampling          : 4:2:0
    Bit depth                   : 8 bits
    Scan type                   : Progressive
    Bits/(Pixel*Frame)          : 0.163
    Stream size                 : 6.02 GiB (79%)
    Writing library             : x264 core 142
    Encoding settings           : cabac=1 / ref=1 / deblock=1:-1:-1 / analyse=0x3:0 / me=hex / subme=5 / psy=0 / mixed_ref=0 / me_range=16 / chroma_me=1 / trellis=0 / 8x8dct=1 / cqm=0 / deadzone=21,11 / fast_pskip=0 / chroma_qp_offset=0 / threads=8 / lookahead_threads=2 / sliced_threads=0 / nr=0 / decimate=1 / interlaced=0 / bluray_compat=0 / constrained_intra=0 / bframes=2 / b_pyramid=0 / b_adapt=1 / b_bias=0 / direct=1 / weightb=0 / open_gop=0 / weightp=0 / keyint=24 / keyint_min=13 / scenecut=40 / intra_refresh=0 / rc=crf / mbtree=0 / crf=20.0 / qcomp=0.60 / qpmin=0 / qpmax=69 / qpstep=4 / ip_ratio=1.40 / pb_ratio=1.30 / aq=1:1.00
    Default                     : Yes
    Forced                      : No
    Color range                 : Limited
    Color primaries             : BT.709
    Transfer characteristics    : BT.709
    Matrix coefficients         : BT.709

    Audio #1
    ID                          : 2
    Format                      : AC-3
    Format/Info                 : Audio Coding 3
    Format settings, Endianness : Big
    Codec ID                    : A_AC3
    Duration                    : 1 h 46 min
    Bit rate mode               : Constant
    Bit rate                    : 640 kb/s
    Channel(s)                  : 6 channels
    Channel positions           : Front: L C R, Side: L R, LFE
    Sampling rate               : 48.0 kHz
    Frame rate                  : 31.250 FPS (1536 spf)
    Bit depth                   : 16 bits
    Compression mode            : Lossy
    Stream size                 : 488 MiB (6%)
    Language                    : Spanish
    Service kind                : Complete Main
    Default                     : Yes
    Forced                      : No

    Audio #2
    ID                          : 3
    Format                      : DTS
    Format/Info                 : Digital Theater Systems
    Mode                        : 16
    Format settings, Endianness : Big
    Codec ID                    : A_DTS
    Duration                    : 1 h 46 min
    Bit rate mode               : Constant
    Bit rate                    : 1 509 kb/s
    Channel(s)                  : 6 channels
    Channel positions           : Front: L C R, Side: L R, LFE
    Sampling rate               : 48.0 kHz
    Frame rate                  : 93.750 FPS (512 spf)
    Bit depth                   : 16 bits
    Compression mode            : Lossy
    Stream size                 : 1.12 GiB (15%)
    Language                    : Thai
    Default                     : No
    Forced                      : No

    Text #1
    ID                          : 4
    Format                      : PGS
    Muxing mode                 : zlib
    Codec ID                    : S_HDMV/PGS
    Codec ID/Info               : Picture based subtitle format used on BDs/HD-DVDs
    Duration                    : 1 h 45 min
    Bit rate                    : 6 034 b/s
    Count of elements           : 2404
    Stream size                 : 4.55 MiB (0%)
    Language                    : French
    Default                     : No
    Forced                      : No

    Text #2
    ID                          : 5
    Format                      : PGS
    Muxing mode                 : zlib
    Codec ID                    : S_HDMV/PGS
    Codec ID/Info               : Picture based subtitle format used on BDs/HD-DVDs
    Duration                    : 1 h 45 min
    Bit rate                    : 4 438 b/s
    Count of elements           : 1504
    Stream size                 : 3.34 MiB (0%)
    Language                    : Spanish
    Default                     : No
    Forced                      : No

    Menu
    00:00:00.000                : en:(01)00:00:00:000
    00:05:39.672                : en:(02)00:05:39:672
    00:11:18.177                : en:(03)00:11:18:177
    00:17:00.102                : en:(04)00:17:00:102
    00:22:36.146                : en:(05)00:22:36:146
    00:27:21.931                : en:(06)00:27:21:931
    00:33:35.888                : en:(07)00:33:35:888
    00:40:43.816                : en:(08)00:40:43:816
    00:46:29.328                : en:(09)00:46:29:328
    00:53:11.980                : en:(10)00:53:11:980
    01:03:11.871                : en:(11)01:03:11:871
    01:10:41.070                : en:(12)01:10:41:070
    01:15:30.776                : en:(13)01:15:30:776
    01:22:51.007                : en:(14)01:22:51:007
    01:28:26.092                : en:(15)01:28:26:092
    01:35:00.653                : en:(16)01:35:00:653

  • Peso: 7.63 GB

Sinopsis

Descargar Resident Evil El Capitulo Final 3D OU Full 1080p Latino Alice (Milla Jovovich) es uno de los últimos supervivientes de la gran humanidad apocalipsis de la primera propagación del virus T, que involucró a hordas de muertos del lado. Nos encontramos inmediatamente después de los acontecimientos de Resident Evil: La venganza (2012). Después de la traición de su llegada a Washington DC por parte Albert Wesker (Shawn Roberts), Alice se Racoon City, que es el punto en el que comenzó la propagación de este virus mortal. Allí, la Corporación Umbrella se fortalece antes de que el asalto final a los últimos supervivientes del Apocalipsis.

En una carrera contra el tiempo, Alice tendrá que recurrir a viejos amigos, así como un nuevo e inesperado aliado. Será una batalla llena de acción contra las hordas de zombies y monstruos mutantes. Entre la pérdida de sus habilidades sobrehumanas y ataque inminente paraguas, que será más difícil aventura de Alice a salvar a la humanidad está a punto de caer en el olvido.

Ficha técnica

Imágenes, Capturas de la película

Video trailer de la película

Enlaces de descarga

Descargar Resident Evil: El capítulo final (2017) 3D OU Full 1080p Latino
Descargar

dpeliculas

Aportes de DPeliculasHDmega la pass es:dpeliculashdmega.org Aportes de CinemaniaHD la pass es:cinemaniahdd.com

PelícuDelas relacionadas

  • Operation Mekong (2016) 1080p Latino

    2016
    Operation Mekong (2016) 1080p Latino

    0.0 2h 4m 2016

    A lo largo del río Mekong se encuentra el llamado triángulo dorado, uno de los mayores proveedores...

    Director: Dante Lam

    Género: Acción

    Actores: Zhao Jian

  • Collide (2016) 1080p Latino

    2016
    Collide (2016) 1080p Latino

    0.0 1h 39m 2016

    Descargar Persecucion al limite hd latino. Tambien conocida como Collide 1080p Cuando uno de los atracos...

    Director: Eran Creevy

    Género: Acción

    Actores: Nicholas Hoult

Comentarios 8
  • Larry Medina - 28 Abril, 2017

    veo unas franjas negras verticales a los lados… es asi la pelicula????

    • dpelis

      Administrador
      - 29 Abril, 2017

      no, cuando se ve ya en la tv se quitan, los de inferior y superior si se ven en la tv

      • Larry Medina - 05 Mayo, 2017

        amigo las franjas a los lados no se quitan ya me descargue la peli y la converti al 3d y nada… una verdadera lastima… pero igual gracias por subirla

        • dpelis

          Administrador
          - 05 Mayo, 2017

          convertir a 3d>? esta es la version 3 full. si ncesita sin franjas debe ver una version 1920×800

          • Larry Medina - 06 Mayo, 2017

            me hice entender mal… quise decir que puse la peli en modo 3d en mi TV… y las franjas me refiero a las laterales izquierda y derecha…. pero una vez mas gracias x subirla tocara verla asi… no queda otra

            • dpelis

              Administrador
              - 06 Mayo, 2017

              como le explique estimado. si usted no quiere ver las franjas. no debe usar una version full. sino un una version, 1920×800 esas no tiene franjas. solo que se le mirara estirado la imagen en la tv

              Saludos

              • Larry Medina - 06 Mayo, 2017

                ya para terminar la discusion yo me refiere a las franjas laterales… No a las de arriba y abajo (me gusta ver las peliculas con franjas negras por si acaso)…. solo observen la primera imagen en la que se ve las franjas negras a los lados…. ojala ahora si me explique….. franjas a los lados
                IIIII——-IIIII
                IIIII IIIII
                IIIII——-IIIII

                • dpelis

                  Administrador
                  - 06 Mayo, 2017

                  entiendo, estimado. no puedo decirle mas, no veo 3d, solo subo para los fanáticos. saludos