Rapido y Furiosos 8 (2017) 1080p Latino

13.213 vistas
1 estrella2 estrellas3 estrellas4 estrellas5 estrellas (7 votos, promedio: 3,71 de 5)
Cargando…

Información de Rapido y Furiosos 8 (2017) 1080p Latino

Datos de la película

  • Calidad: 1080p
  • Audio: Español Latino AC3 5.1 DVD - Ingles AC3 5.1 BLURAY
  • Subtitulos: Español Latino SRT - Ingles SRT
  • Resolución: 1920x804p
  • Formato: MKV
  • Codec: H.264
  • Encoder: Dpelis
  • Mediainfo: Ver Ver
  • Rapido y Furisos 8 1080p Latino.mkv
    Format                      : Matroska
    Format version              : Version 4 / Version 2
    File size                   : 4.03 GiB
    Duration                    : 2 h 15 min
    Overall bit rate            : 4 241 kb/s
    Movie name                  : DPeliculasHDMega.ORG
    Encoded date                : UTC 2017-06-29 03:46:06
    Writing application         : mkvmerge v10.0.0 ('To Drown In You') 64bit
    Writing library             : libebml v1.3.4 + libmatroska v1.4.5

    Video
    ID                          : 1
    Format                      : AVC
    Format/Info                 : Advanced Video Codec
    Format profile              : [email protected]
    Format settings, CABAC      : Yes
    Format settings, ReFrames   : 4 frames
    Codec ID                    : V_MPEG4/ISO/AVC
    Duration                    : 2 h 15 min
    Bit rate                    : 3 500 kb/s
    Width                       : 1 920 pixels
    Height                      : 804 pixels
    Display aspect ratio        : 2.40:1
    Frame rate mode             : Constant
    Frame rate                  : 23.976 (24000/1001) FPS
    Color space                 : YUV
    Chroma subsampling          : 4:2:0
    Bit depth                   : 8 bits
    Scan type                   : Progressive
    Bits/(Pixel*Frame)          : 0.095
    Stream size                 : 3.30 GiB (82%)
    Writing library             : x264 core 148 r2708 86b7198
    Encoding settings           : cabac=1 / ref=3 / deblock=1:0:0 / analyse=0x3:0x113 / me=hex / subme=7 / psy=1 / psy_rd=1.00:0.00 / mixed_ref=1 / me_range=16 / chroma_me=1 / trellis=1 / 8x8dct=1 / cqm=0 / deadzone=21,11 / fast_pskip=1 / chroma_qp_offset=-2 / threads=12 / lookahead_threads=2 / sliced_threads=0 / nr=0 / decimate=1 / interlaced=0 / bluray_compat=0 / constrained_intra=0 / bframes=3 / b_pyramid=2 / b_adapt=1 / b_bias=0 / direct=1 / weightb=1 / open_gop=0 / weightp=2 / keyint=240 / keyint_min=24 / scenecut=40 / intra_refresh=0 / rc_lookahead=40 / rc=abr / mbtree=1 / bitrate=3500 / ratetol=1.0 / qcomp=0.60 / qpmin=0 / qpmax=69 / qpstep=4 / vbv_maxrate=62500 / vbv_bufsize=78125 / nal_hrd=none / filler=0 / ip_ratio=1.40 / aq=1:1.00
    Default                     : Yes
    Forced                      : No
    Color range                 : Limited
    Color primaries             : BT.709
    Transfer characteristics    : BT.709
    Matrix coefficients         : BT.709

    Audio #1
    ID                          : 2
    Format                      : AC-3
    Format/Info                 : Audio Coding 3
    Format settings, Endianness : Big
    Codec ID                    : A_AC3
    Duration                    : 2 h 15 min
    Bit rate mode               : Constant
    Bit rate                    : 384 kb/s
    Channel(s)                  : 6 channels
    Channel positions           : Front: L C R, Side: L R, LFE
    Sampling rate               : 48.0 kHz
    Frame rate                  : 31.250 FPS (1536 spf)
    Bit depth                   : 16 bits
    Compression mode            : Lossy
    Delay relative to video     : -5 ms
    Stream size                 : 373 MiB (9%)
    Language                    : Spanish
    Service kind                : Complete Main
    Default                     : Yes
    Forced                      : No

    Audio #2
    ID                          : 3
    Format                      : AC-3
    Format/Info                 : Audio Coding 3
    Format settings, Endianness : Big
    Codec ID                    : A_AC3
    Duration                    : 2 h 15 min
    Bit rate mode               : Constant
    Bit rate                    : 384 kb/s
    Channel(s)                  : 6 channels
    Channel positions           : Front: L C R, Side: L R, LFE
    Sampling rate               : 48.0 kHz
    Frame rate                  : 31.250 FPS (1536 spf)
    Bit depth                   : 16 bits
    Compression mode            : Lossy
    Delay relative to video     : -5 ms
    Stream size                 : 373 MiB (9%)
    Language                    : English
    Service kind                : Complete Main
    Default                     : No
    Forced                      : No

    Text #1
    ID                          : 4
    Format                      : UTF-8
    Codec ID                    : S_TEXT/UTF8
    Codec ID/Info               : UTF-8 Plain Text
    Duration                    : 2 h 5 min
    Bit rate                    : 49 b/s
    Count of elements           : 1522
    Stream size                 : 45.8 KiB (0%)
    Language                    : Spanish
    Default                     : Yes
    Forced                      : No

    Text #2
    ID                          : 5
    Format                      : UTF-8
    Codec ID                    : S_TEXT/UTF8
    Codec ID/Info               : UTF-8 Plain Text
    Duration                    : 2 h 14 min
    Bit rate                    : 1 b/s
    Count of elements           : 70
    Stream size                 : 1.54 KiB (0%)
    Title                       : FORZADOS
    Language                    : Spanish
    Default                     : No
    Forced                      : No

    Text #3
    ID                          : 6
    Format                      : UTF-8
    Codec ID                    : S_TEXT/UTF8
    Codec ID/Info               : UTF-8 Plain Text
    Duration                    : 2 h 4 min
    Bit rate                    : 58 b/s
    Count of elements           : 1788
    Stream size                 : 53.6 KiB (0%)
    Language                    : English
    Default                     : No
    Forced                      : No

    Menu
    00:00:00.000                : en:00:00:00.000
    00:13:08.913                : en:00:13:08.913
    00:20:30.771                : en:00:20:30.771
    00:26:38.639                : en:00:26:38.639
    00:32:26.778                : en:00:32:26.778
    00:36:40.573                : en:00:36:40.573
    00:43:35.613                : en:00:43:35.613
    00:47:45.780                : en:00:47:45.780
    00:56:00.732                : en:00:56:00.732
    01:04:08.303                : en:01:04:08.303
    01:09:08.061                : en:01:09:08.061
    01:13:24.275                : en:01:13:24.275
    01:21:25.714                : en:01:21:25.714
    01:29:29.948                : en:01:29:29.948
    01:35:12.457                : en:01:35:12.457
    01:39:55.781                : en:01:39:55.781
    01:45:00.711                : en:01:45:00.711
    01:53:01.858                : en:01:53:01.858
    02:01:51.262                : en:02:01:51.262
    02:06:45.098                : en:02:06:45.097

  • Peso: 4.03 GB

Sinopsis

Descargar Pelicula Rapido y Furiosos 8 1080p Latino. Empezó la carrera. Dom Toretto (Vin Diesel) y su equipo una vez más, con más ganas que nunca de la guerra. No hay escasez de exceso de velocidad y adrenalina para una película que debe ser la entrega con más acción de esta saga camino más excelente.

 

Gary Gray (Straight Outta Compton, The Italian Job) se encarga de la dirección de este octavo film de la taquillera saga. En el reparto, actores bien conocidos de la franquicia como Vin Diesel (xXx: The Return of Xander Cage, El último cazador de brujas), Dwayne Johnson (Un espía y medio, Asalto al furgón blindado), Jason Statham (Los mercenarios 3, Asesinos de élite), Tyrese Gibson (Transformers: El lado oscuro de la luna, La carrera de la muerte) y Michelle Rodriguez (Resident Evil 5: Venganza, Avatar). Las nuevas incorporaciones de esta entrega son las de los actores Scott Eastwood (Jóvenes sicarios, Corazones de acero) y Charlize Theron (Las crónicas de Blancanieves: El Cazador y la Reina del Hielo, Mad Max: Furia en la carretera), además de Kurt Russell (Los odiosos ocho, Bone Tomahawk), que ya intervino en Fast & Furious 7 (2015).

 

Ficha técnica

Imágenes, Capturas de la película

Video trailer de la película

Enlaces de descarga

Descargar Rapido y Furiosos 8 (2017) 1080p Latino
Descargar

dpeliculas

Aportes de DPeliculasHDmega la pass es:dpeliculashdmega.org Aportes de CinemaniaHD la pass es:cinemaniahdd.com
Guardado en : Acción , Crimen , Suspense

PelícuDelas relacionadas

  • Operation Mekong (2016) 1080p Latino

    2016
    Operation Mekong (2016) 1080p Latino

    5.0 2h 4m 2016

    A lo largo del río Mekong se encuentra el llamado triángulo dorado, uno de los mayores proveedores...

    Director: Dante Lam

    Género: Acción

    Actores: Zhao Jian

  • Collide (2016) 1080p Latino

    2016
    Collide (2016) 1080p Latino

    0.0 1h 39m 2016

    Descargar Persecucion al limite hd latino. Tambien conocida como Collide 1080p Cuando uno de los atracos...

    Director: Eran Creevy

    Género: Acción

    Actores: Nicholas Hoult

  • Gold la gran estafa (2016) 1080p Latino

    2016
    Gold la gran estafa (2016) 1080p Latino

    0.0 2h 1m 2016

    Descarga Gold hd latino, también conocida La gran estafa 1080p latino Kenny Wells es un fracasado hombre...

    Director: Stephen Gaghan

    Género: Aventura

    Actores: Yothin Mapobphun

Comentarios 23
  • Carlos Jose Cabeza - 21 Julio, 2017

    Amigos buenas tardes, Cuando le doy paste público luego descargar, Me pide que le de click aun anuncio, me sale n contador a 30 segundos, me abre otra pagina que me dice Dale click al anuncio y espera 30 segundos…. Donde esta el bendito anuncio?????? No aparece nada!!!!!!!!!!!!!!!!!!!!!!!!!!!!!!!!!!!!!!!!

  • luis - 01 Julio, 2017

    amigo, que paso con la version WEB-DL?

    • dpelis

      Administrador
      - 01 Julio, 2017

      desaparecio el paste, se me olvido agregarlo, 🙁 saludos

  • RuddyYankee - 30 Junio, 2017

    Amigo por qué a la películas WEBDL le están poniendo la portada?. Ya me estoy confundiendo con la calidad.

    • dpelis

      Administrador
      - 02 Julio, 2017

      se actulizan los post webdl de ser webdl se pasan a version rip.

  • Felipe - 29 Junio, 2017

    la subirán en 4k? me hice mega fan de sus versiones 4k por mas mala que sea la película me la bajo porque me encanta como se ve

  • gaston - 29 Junio, 2017

    Hola una pregunta
    cuando sale la version con el audio latino del bluray?

  • Jairo - 29 Junio, 2017

    Cuando subiran el audio latino del BR?

    • dpelis

      Administrador
      - 29 Junio, 2017

      vierens se subira la version full

      • Jairo - 29 Junio, 2017

        Muchas Gracias

  • john - 28 Junio, 2017

    me decepcione no esta limpio esta version esa esa de ruso se supone que hay una version limpia no es asi…

    • dpelis

      Administrador
      - 28 Junio, 2017

      que minuto>? para revisar

  • edward - 27 Junio, 2017

    Woow muchas gracias, unicos en la red

  • Nachoo - 02 Junio, 2017

    Hola, gracias por la peli.
    Podrán subir los bandoleros? Me falta solo esa para mi colección si la encuentran sería genial

  • Erick - 27 Mayo, 2017

    Archivos corruptos…. Esperando tanto tiempo la descarga y aparece esto……. Era usuario con membresia VIP en cinemaniahdd y nunca tuve un problema con los archivos, en cambio ahora me ha pasado con dos películas :/. Una lastima.

    Saludos

    • dpelis

      Administrador
      - 27 Mayo, 2017

      entiendo estimado. intento repararlos? podria intentar reparar. abrir el archivo danado y herramientas y reparar archivo.luego sustituya el archivo nuevo por el antiguo y extraer de nuevo

  • felipw - 21 Mayo, 2017

    me tira error en el fichero 1 de mega ayuda pls

    • dpelis

      Administrador
      - 22 Mayo, 2017

      entonces error de mega estimado, esperar que se normalize esa parte. Intente en otro momento, saludos

  • John Abril - 21 Mayo, 2017

    No funciona el 3 enlace de la película 🙁

    • dpelis

      Administrador
      - 21 Mayo, 2017

      de que servidor?

  • marco - 19 Mayo, 2017

    exelente pelucula