Queen of Earth (2015) 1080p Latino

737 vistas
1 estrella2 estrellas3 estrellas4 estrellas5 estrellas (1 votos, promedio: 4,00 de 5)
Cargando…

Información de Queen of Earth (2015) 1080p Latino

Datos de la película

  • Calidad: Full 1080p
  • Audio: Español Latino AC3 2.0 DVD - Ingles AC3 5.1 BLURAY
  • Subtitulos: Español Latino SRT - Ingles SRT
  • Resolución: 1920x1080p
  • Formato: MKV
  • Codec: H.264
  • Encoder: Dpelis
  • Mediainfo: Ver Ver
  • Queen.of.earth.2015.1080p.Latino.mkv
    Format                      : Matroska
    Format version              : Version 4 / Version 2
    File size                   : 2.58 GiB
    Duration                    : 1 h 29 min
    Overall bit rate            : 4 128 kb/s
    Movie name                  : DPeliculasHDMega.ORG
    Encoded date                : UTC 2017-05-15 21:18:32 / UTC 2017-05-15T14:11:29Z
    Writing application         : mkvmerge v10.0.0 ('To Drown In You') 64bit
    Writing library             : libebml v1.3.4 + libmatroska v1.4.5 / Lavf57.7.2

    Video
    ID                          : 1
    Format                      : AVC
    Format/Info                 : Advanced Video Codec
    Format profile              : [email protected]
    Format settings, CABAC      : Yes
    Format settings, ReFrames   : 4 frames
    Codec ID                    : V_MPEG4/ISO/AVC
    Duration                    : 1 h 29 min
    Bit rate                    : 3 500 kb/s
    Width                       : 1 920 pixels
    Height                      : 1 080 pixels
    Display aspect ratio        : 16:9
    Frame rate mode             : Constant
    Frame rate                  : 24.000 FPS
    Color space                 : YUV
    Chroma subsampling          : 4:2:0
    Bit depth                   : 8 bits
    Scan type                   : Progressive
    Bits/(Pixel*Frame)          : 0.070
    Stream size                 : 2.13 GiB (83%)
    Writing library             : x264 core 148 r2708 86b7198
    Encoding settings           : cabac=1 / ref=3 / deblock=1:0:0 / analyse=0x3:0x113 / me=hex / subme=7 / psy=1 / psy_rd=1.00:0.00 / mixed_ref=1 / me_range=16 / chroma_me=1 / trellis=1 / 8x8dct=1 / cqm=0 / deadzone=21,11 / fast_pskip=1 / chroma_qp_offset=-2 / threads=12 / lookahead_threads=2 / sliced_threads=0 / nr=0 / decimate=1 / interlaced=0 / bluray_compat=0 / constrained_intra=0 / bframes=3 / b_pyramid=2 / b_adapt=1 / b_bias=0 / direct=1 / weightb=1 / open_gop=0 / weightp=2 / keyint=240 / keyint_min=24 / scenecut=40 / intra_refresh=0 / rc_lookahead=40 / rc=abr / mbtree=1 / bitrate=3500 / ratetol=1.0 / qcomp=0.60 / qpmin=0 / qpmax=69 / qpstep=4 / vbv_maxrate=62500 / vbv_bufsize=78125 / nal_hrd=none / filler=0 / ip_ratio=1.40 / aq=1:1.00
    Default                     : Yes
    Forced                      : No
    Color range                 : Limited
    Color primaries             : BT.709
    Transfer characteristics    : BT.709
    Matrix coefficients         : BT.709
    Statistics Tags Issue       : mkvmerge v10.0.0 ('To Drown In You') 64bit 2017-05-15 21:18:32 / mkvmerge v10.0.0 ('To Drown In You') 64bit 2017-05-15 21:18:32 / UTC 2017-05-15T14:11:29Z
    FromStats_BitRate           : 3486079
    FromStats_Duration          : 01:29:38.167000000
    FromStats_FrameCount        : 129076
    FromStats_StreamSize        : 2343589768

    Audio #1
    ID                          : 2
    Format                      : AC-3
    Format/Info                 : Audio Coding 3
    Format settings, Endianness : Big
    Codec ID                    : A_AC3
    Duration                    : 1 h 29 min
    Bit rate mode               : Constant
    Bit rate                    : 256 kb/s
    Channel(s)                  : 2 channels
    Channel positions           : Front: L R
    Sampling rate               : 48.0 kHz
    Frame rate                  : 31.250 FPS (1536 spf)
    Bit depth                   : 16 bits
    Compression mode            : Lossy
    Delay relative to video     : -5 ms
    Stream size                 : 164 MiB (6%)
    Title                       : Stereo
    Language                    : Spanish
    Service kind                : Complete Main
    Default                     : Yes
    Forced                      : No
    Statistics Tags Issue       : mkvmerge v10.0.0 ('To Drown In You') 64bit 2017-05-15 21:18:32 / mkvmerge v10.0.0 ('To Drown In You') 64bit 2017-05-15 21:18:32 / UTC 2017-05-15T14:11:29Z
    FromStats_BitRate           : 256000
    FromStats_Duration          : 01:29:36.288000000
    FromStats_FrameCount        : 168009
    FromStats_StreamSize        : 172041216

    Audio #2
    ID                          : 3
    Format                      : AC-3
    Format/Info                 : Audio Coding 3
    Format settings, Endianness : Big
    Codec ID                    : A_AC3
    Duration                    : 1 h 29 min
    Bit rate mode               : Constant
    Bit rate                    : 384 kb/s
    Channel(s)                  : 6 channels
    Channel positions           : Front: L C R, Side: L R, LFE
    Sampling rate               : 48.0 kHz
    Frame rate                  : 31.250 FPS (1536 spf)
    Bit depth                   : 16 bits
    Compression mode            : Lossy
    Delay relative to video     : -5 ms
    Stream size                 : 246 MiB (9%)
    Title                       : Surround
    Language                    : English
    Service kind                : Complete Main
    Default                     : No
    Forced                      : No
    Statistics Tags Issue       : mkvmerge v10.0.0 ('To Drown In You') 64bit 2017-05-15 21:18:32 / mkvmerge v10.0.0 ('To Drown In You') 64bit 2017-05-15 21:18:32 / UTC 2017-05-15T14:11:29Z
    FromStats_BitRate           : 384000
    FromStats_Duration          : 01:29:37.376000000
    FromStats_FrameCount        : 168043
    FromStats_StreamSize        : 258114048

    Text #1
    ID                          : 4
    Format                      : UTF-8
    Codec ID                    : S_TEXT/UTF8
    Codec ID/Info               : UTF-8 Plain Text
    Language                    : Spanish
    Default                     : No
    Forced                      : No
    Statistics Tags Issue       : mkvmerge v10.0.0 ('To Drown In You') 64bit 2017-05-15 21:18:32 / mkvmerge v10.0.0 ('To Drown In You') 64bit 2017-05-15 21:18:32 / UTC 2017-05-15T14:11:29Z
    FromStats_BitRate           : 37
    FromStats_Duration          : 01:25:34.959000000
    FromStats_FrameCount        : 898
    FromStats_StreamSize        : 24112

    Text #2
    ID                          : 5
    Format                      : UTF-8
    Codec ID                    : S_TEXT/UTF8
    Codec ID/Info               : UTF-8 Plain Text
    Language                    : English
    Default                     : No
    Forced                      : No
    Statistics Tags Issue       : mkvmerge v10.0.0 ('To Drown In You') 64bit 2017-05-15 21:18:32 / mkvmerge v10.0.0 ('To Drown In You') 64bit 2017-05-15 21:18:32 / UTC 2017-05-15T14:11:29Z
    FromStats_BitRate           : 52
    FromStats_Duration          : 01:23:12.625000000
    FromStats_FrameCount        : 936
    FromStats_StreamSize        : 32530

    Text #3
    ID                          : 6
    Format                      : UTF-8
    Codec ID                    : S_TEXT/UTF8
    Codec ID/Info               : UTF-8 Plain Text
    Language                    : Spanish
    Default                     : Yes
    Forced                      : No
    Statistics Tags Issue       : mkvmerge v10.0.0 ('To Drown In You') 64bit 2017-05-15 21:18:32 / mkvmerge v10.0.0 ('To Drown In You') 64bit 2017-05-15 21:18:32 / UTC 2017-05-15T14:11:29Z
    FromStats_BitRate           : 91
    FromStats_Duration          : 00:00:10.100000000
    FromStats_FrameCount        : 1
    FromStats_StreamSize        : 115

    Menu
    00:00:00.000                : :Chapter 1
    00:10:44.208                : :Chapter 2
    00:23:59.167                : :Chapter 3
    00:32:43.375                : :Chapter 4
    00:41:00.542                : :Chapter 5
    00:51:12.875                : :Chapter 6
    01:02:10.958                : :Chapter 7
    01:11:44.208                : :Chapter 8
    01:24:08.208                : :Chapter 9

  • Peso: 2.58GB

Sinopsis

Descargar Queen of Earth 1080p Latino, Algunos mejores amigos se retiran a una casa de playa para aliviar la presión y el estrés, uno tras sufrir una rotura traumática. Fueron grandes amigos en el pasado, pero en estos días dan cuenta de lo que desconecta junto con el tiempo, a las sospechas y resentimientos pasó inesperadamente en esta área.

Ficha técnica

  • Titulo original: Queen of Earth
  • Fecha de lanzamiento: 26-08-2015 (United States of America)
  • Director: Alex Ross Perry
  • Género: Drama, Misterio, Suspense
  • Puntuación: 4.0 1 votos
  • Duración:
    1h 30m

Imágenes, Capturas de la película

Video trailer de la película

Enlaces de descarga

Descargar Queen of Earth (2015) 1080p Latino
Descargar

dpeliculas

Aportes de DPeliculasHDmega la pass es:dpeliculashdmega.org Aportes de CinemaniaHD la pass es:cinemaniahdd.com
Guardado en : Drama , Misterio , Suspense

PelícuDelas relacionadas

  • It – Eso (1990) WEBDL 1080p Latino

    1990
    It – Eso (1990) WEBDL 1080p Latino

    0.0 3h 7m 1990

    Descargar Stephen King's It  hd latino, tambien conocida como It o ESO Un tranquilo y pequeño pueblo...

    Director: Tommy Lee Wallace

    Género: Drama

    Actores: Tim Reid

  • The Walking Dead (2017) Temporada 7 Full Latino

    2016
    The Walking Dead (2017) Temporada 7 Full Latino

    0.0 0h 42m 2016

    Descarga The Walking Dead Temporada 7 hd latino, Hasta este punto, nuestros personajes han vivido a través...

    Director: Frank Darabont

    Género: Drama

    Actores: Norman Reedus

  • La momia (2017) Webdl 1080p Latino

    2017
    La momia (2017) Webdl 1080p Latino

    4.0 1h 50m 2017

    Descargar La momia 2017 1080p webdl  Latino, esta pelicula estara disponible con audio latino final...

    Director: Jo Beckett

    Género: Acción

    Actores: Vera Chok

  • Snowden (2016) 1080p Latino

    2016
    Snowden (2016) 1080p Latino

    0.0 2h 15m 2016

    Basada en el libro "The Snowden files. The inside story of the world's most wanted man" escrito por Luke...

    Director: Oliver Stone

    Género: Drama

    Actores: Zachary Quinto

  • Hide and Seek (2016) WEBDL 1080p Latino

    2016
    Hide and Seek (2016) WEBDL 1080p Latino

    0.0 1h 41m 2016

    Un hombre vive en un hermoso apartamento con su esposa y 2 hijos. Está obsesionado con la limpieza,...

    Director: Liu Jie

    Género: Misterio

    Actores: Wallace Huo

Comentarios 1
  • seba - 16 Mayo, 2017

    alguien ha visto esta peli?? es buena para bajarla???