Prison Break (2006) Temporada 2 Full 1080p Latino

402 vistas
1 estrella2 estrellas3 estrellas4 estrellas5 estrellas (1 votos, promedio: 1,00 de 5)
Cargando…

Información de Prison Break (2006) Temporada 2 Full 1080p Latino

Datos de la película

  • Calidad: Full 1080p
  • Audio: Español Latino AC3 2.0 DVD - Ingles DTS 5.1 BLURAY
  • Subtitulos: Español Latino SRT - Ingles SRT
  • Resolución: 1920x1080p
  • Formato: MKV
  • Codec: H.264
  • Encoder: Dpelis
  • Mediainfo: Ver Ver
  • Prison Break S02E01 Full 1080p Latino.mkv
    Format                      : Matroska
    Format version              : Version 4 / Version 2
    File size                   : 3.12 GiB
    Duration                    : 41 min 27 s
    Overall bit rate            : 10.8 Mb/s
    Encoded date                : UTC 2017-07-31 17:08:55 / UTC 2017-07-03T05:15:20Z
    Writing application         : mkvmerge v10.0.0 ('To Drown In You') 64bit
    Writing library             : libebml v1.3.4 + libmatroska v1.4.5 / Lavf57.7.2

    Video
    ID                          : 1
    Format                      : AVC
    Format/Info                 : Advanced Video Codec
    Format profile              : [email protected]
    Format settings, CABAC      : Yes
    Format settings, ReFrames   : 4 frames
    Codec ID                    : V_MPEG4/ISO/AVC
    Duration                    : 41 min 27 s
    Bit rate                    : 9 936 kb/s
    Width                       : 1 920 pixels
    Height                      : 1 080 pixels
    Display aspect ratio        : 16:9
    Frame rate mode             : Constant
    Frame rate                  : 23.976 (24000/1001) FPS
    Color space                 : YUV
    Chroma subsampling          : 4:2:0
    Bit depth                   : 8 bits
    Scan type                   : Progressive
    Bits/(Pixel*Frame)          : 0.200
    Stream size                 : 2.88 GiB (92%)
    Writing library             : x264 core 148 r2708 86b7198
    Encoding settings           : cabac=1 / ref=4 / deblock=1:0:0 / analyse=0x3:0x133 / me=esa / subme=9 / psy=1 / psy_rd=1.00:0.00 / mixed_ref=1 / me_range=16 / chroma_me=1 / trellis=2 / 8x8dct=1 / cqm=0 / deadzone=21,11 / fast_pskip=1 / chroma_qp_offset=-2 / threads=34 / lookahead_threads=2 / sliced_threads=0 / nr=0 / decimate=1 / interlaced=0 / bluray_compat=0 / constrained_intra=0 / bframes=3 / b_pyramid=2 / b_adapt=2 / b_bias=0 / direct=3 / weightb=1 / open_gop=0 / weightp=2 / keyint=240 / keyint_min=24 / scenecut=40 / intra_refresh=0 / rc_lookahead=60 / rc=crf / mbtree=1 / crf=20.0 / qcomp=0.60 / qpmin=0 / qpmax=69 / qpstep=4 / vbv_maxrate=62500 / vbv_bufsize=78125 / crf_max=0.0 / nal_hrd=none / filler=0 / ip_ratio=1.40 / aq=1:1.00
    Default                     : Yes
    Forced                      : No
    Color range                 : Limited
    Color primaries             : BT.709
    Transfer characteristics    : BT.709
    Matrix coefficients         : BT.709
    Statistics Tags Issue       : mkvmerge v10.0.0 ('To Drown In You') 64bit 2017-07-31 17:08:55 / mkvmerge v10.0.0 ('To Drown In You') 64bit 2017-07-31 17:08:55 / UTC 2017-07-03T05:15:20Z
    FromStats_BitRate           : 10148261
    FromStats_Duration          : 00:41:27.444000000
    FromStats_FrameCount        : 59639
    FromStats_StreamSize        : 3155404071

    Audio #1
    ID                          : 2
    Format                      : AC-3
    Format/Info                 : Audio Coding 3
    Format settings, Endianness : Big
    Codec ID                    : A_AC3
    Duration                    : 41 min 27 s
    Bit rate mode               : Constant
    Bit rate                    : 192 kb/s
    Channel(s)                  : 2 channels
    Channel positions           : Front: L R
    Sampling rate               : 48.0 kHz
    Frame rate                  : 31.250 FPS (1536 spf)
    Bit depth                   : 16 bits
    Compression mode            : Lossy
    Delay relative to video     : -5 ms
    Stream size                 : 56.9 MiB (2%)
    Language                    : Spanish
    Service kind                : Complete Main
    Default                     : Yes
    Forced                      : No
    Statistics Tags Issue       : mkvmerge v10.0.0 ('To Drown In You') 64bit 2017-07-31 17:08:55 / mkvmerge v10.0.0 ('To Drown In You') 64bit 2017-07-31 17:08:55 / UTC 2017-07-03T05:15:20Z
    FromStats_BitRate           : 192000
    FromStats_Duration          : 00:41:27.488000000
    FromStats_FrameCount        : 77734
    FromStats_StreamSize        : 59699712

    Audio #2
    ID                          : 3
    Format                      : DTS
    Format/Info                 : Digital Theater Systems
    Mode                        : 16
    Format settings, Endianness : Big
    Codec ID                    : A_DTS
    Duration                    : 43 min 3 s
    Bit rate mode               : Constant
    Bit rate                    : 1 509 kb/s
    Channel(s)                  : 6 channels
    Channel positions           : Front: L C R, Side: L R, LFE
    Sampling rate               : 48.0 kHz
    Frame rate                  : 93.750 FPS (512 spf)
    Bit depth                   : 16 bits
    Compression mode            : Lossy
    Stream size                 : 465 MiB (13%)
    Title                       : Surround
    Language                    : English
    Default                     : No
    Forced                      : No
    Statistics Tags Issue       : mkvmerge v10.0.0 ('To Drown In You') 64bit 2017-07-31 17:08:55 / mkvmerge v10.0.0 ('To Drown In You') 64bit 2017-07-31 17:08:55 / UTC 2017-07-03T05:15:20Z
    FromStats_BitRate           : 448000
    FromStats_Duration          : 00:41:27.456000000
    FromStats_FrameCount        : 77733
    FromStats_StreamSize        : 139297536

    Text #1
    ID                          : 4
    Format                      : UTF-8
    Codec ID                    : S_TEXT/UTF8
    Codec ID/Info               : UTF-8 Plain Text
    Language                    : Spanish
    Default                     : Yes
    Forced                      : No
    Statistics Tags Issue       : mkvmerge v10.0.0 ('To Drown In You') 64bit 2017-07-31 17:08:55 / mkvmerge v10.0.0 ('To Drown In You') 64bit 2017-07-31 17:08:55 / UTC 2017-07-03T05:15:20Z
    FromStats_BitRate           : 68
    FromStats_Duration          : 00:40:50.534000000
    FromStats_FrameCount        : 615
    FromStats_StreamSize        : 20891

    Text #2
    ID                          : 5
    Format                      : UTF-8
    Codec ID                    : S_TEXT/UTF8
    Codec ID/Info               : UTF-8 Plain Text
    Language                    : English
    Default                     : No
    Forced                      : No
    Statistics Tags Issue       : mkvmerge v10.0.0 ('To Drown In You') 64bit 2017-07-31 17:08:55 / mkvmerge v10.0.0 ('To Drown In You') 64bit 2017-07-31 17:08:55 / UTC 2017-07-03T05:15:20Z
    FromStats_BitRate           : 64
    FromStats_Duration          : 00:40:33.930000000
    FromStats_FrameCount        : 534
    FromStats_StreamSize        : 19555

    Menu
    00:00:00.000                : :Chapter 1
    00:05:46.346                : :Chapter 2
    00:10:20.745                : :Chapter 3
    00:13:37.108                : :Chapter 4
    00:16:06.382                : :Chapter 5
    00:18:56.385                : :Chapter 6
    00:21:39.215                : :Chapter 7
    00:24:26.632                : :Chapter 8
    00:29:05.994                : :Chapter 9
    00:32:55.515                : :Chapter 10
    00:36:34.401                : :Chapter 11
    00:39:18.898                : :Chapter 12

  • Peso: 3.80 GB c/u 88 GB total

Sinopsis

Ahora puedes descargar de nuestra web, la serie Prison Break temporada 2 completa full 1080p Latino, mas adelante traemos la tercera temporada, Por el momento a disfrutar de esta. La segunda temporada consta de 22 episodios y es continuación directa del final de la primera temporada. Comienza ocho horas después de la fuga de prisión y se centra principalmente en la supervivencia de los fugitivos. Un nuevo personaje importante se introduce esta temporada: el agente del FBI, Alexander Mahone, a quien se le asigna el trabajo de capturar a los ocho de Fox River. Los fugitivos recorren todo el país para no ser encontrados por la policía. Cada uno tiene sus metas individuales, sin embargo, varios coinciden en Utah, donde hay 5 millones de dólares enterrados (Dinero que Charles Westmoreland o “D.B. Cooper”, enterró antes de ser capturado). El argumento secundario de esta temporada es el interés de La Compañía por localizar y eliminar a Lincoln Burrows y a los demás fugitivos.

 

Sincronizacion Audio Latino Gracias a: Alex – ChocoCrysp

Ficha técnica

Imágenes, Capturas de la película

Video trailer de la película

Enlaces de descarga

Descargar Prison Break (2006) Temporada 2 Full 1080p Latino
Descargar

dpeliculas

Aportes de DPeliculasHDmega la pass es:dpeliculashdmega.org Aportes de CinemaniaHD la pass es:cinemaniahdd.com

PelícuDelas relacionadas

  • Dragon Ball Super (2015) Full 1080p Latino

    2015
    Dragon Ball Super (2015) Full 1080p Latino

    5.0 0h 24m 2015

    Si eres un seguidor de la serie Dragon ball super latino, entonces ahora puedes disfrutar de esta maravillosa...

    Director: Akira Toriyama

    Género: Anime

    Actores: Naoki Tatsuta

  • Juego de Tronos (2016) Temporada 6 Full Latino

    2011/03/17
    Juego de Tronos (2016) Temporada 6 Full Latino

    0.0 60 Min. 2011/03/17

    Descargar gratis Juego de Tronos (2016) Temporada 6 Full Latino Sinopsis capitulo 1: Jon Nieve está...

    Director: David Benioff

    Género: Drama

    Actores: Sophie Turner

  • Juegos de Tronos (2015) Temporada 5 Full Latino

    2011/03/17
    Juegos de Tronos (2015) Temporada 5 Full Latino

    5.0 60 Min. 2011/03/17

    Descargar gratis Juegos de Tronos (2015) Temporada 5 Full Latino  Sinopsis captitulo 1: La reina Cersei...

    Director: David Benioff

    Género: Drama

    Actores: Sophie Turner

Comentarios 9
  • dany - 09 Agosto, 2017

    hola chicos para cuando estara las demas temporadas!?? muyyyy buena serieee!!!!!!! gracias espero las demas geniosssss

    • dpelis

      Administrador
      - 09 Agosto, 2017

      requiere trabajo esperar

      • dany - 10 Agosto, 2017

        gracias las esperoo…saludos

  • criss - 02 Agosto, 2017

    mil gracias, se va a la colección. aunque estos capítulos van mas livianos ?

    • dpelis

      Administrador
      - 02 Agosto, 2017

      los proximos seran mas livianos

      • criss - 02 Agosto, 2017

        osea disminuirá un poco la calidad ???

        • dpelis

          Administrador
          - 02 Agosto, 2017

          no estimado

  • RuddyYankee - 01 Agosto, 2017

    Hermano 1 Billón de GRACIAS

    • dpelis

      Administrador
      - 01 Agosto, 2017

      que la disfrute