Prison Break (2008) Temporada 4 Full 1080p Latino

336 vistas
1 estrella2 estrellas3 estrellas4 estrellas5 estrellas (Ninguna valoración todavía)
Cargando…

Información de Prison Break (2008) Temporada 4 Full 1080p Latino

Datos de la película

  • Calidad: Full 1080p
  • Audio: Español Latino AC3 2.0 DVD - Ingles DTS 5.1 BLURAY
  • Subtitulos: Español Latino SRT
  • Resolución: 1920x1080p
  • Formato: MKV
  • Codec: H.264
  • Encoder: Dpelis
  • Mediainfo: Ver Ver
  • Prison Break S04E03 Full 1080p Latino.mkv
    Format                      : Matroska
    Format version              : Version 4 / Version 2
    File size                   : 3.66 GiB
    Duration                    : 43 min 57 s
    Overall bit rate            : 11.9 Mb/s
    Movie name                  : DPeliculasHDMega.ORG
    Encoded date                : UTC 2017-09-17 20:05:28 / UTC 2017-09-14T03:09:43Z
    Writing application         : mkvmerge v10.0.0 ('To Drown In You') 64bit
    Writing library             : libebml v1.3.4 + libmatroska v1.4.5 / Lavf57.7.2

    Video
    ID                          : 1
    Format                      : AVC
    Format/Info                 : Advanced Video Codec
    Format profile              : [email protected]
    Format settings, CABAC      : Yes
    Format settings, RefFrames  : 4 frames
    Codec ID                    : V_MPEG4/ISO/AVC
    Duration                    : 43 min 57 s
    Bit rate                    : 9 980 kb/s
    Width                       : 1 920 pixels
    Height                      : 1 080 pixels
    Display aspect ratio        : 16:9
    Frame rate mode             : Constant
    Frame rate                  : 23.976 (24000/1001) FPS
    Color space                 : YUV
    Chroma subsampling          : 4:2:0
    Bit depth                   : 8 bits
    Scan type                   : Progressive
    Bits/(Pixel*Frame)          : 0.201
    Stream size                 : 3.06 GiB (84%)
    Writing library             : x264 core 148 r2708 86b7198
    Encoding settings           : cabac=1 / ref=4 / deblock=1:0:0 / analyse=0x3:0x133 / me=esa / subme=9 / psy=1 / psy_rd=1.00:0.00 / mixed_ref=1 / me_range=16 / chroma_me=1 / trellis=2 / 8x8dct=1 / cqm=0 / deadzone=21,11 / fast_pskip=1 / chroma_qp_offset=-2 / threads=34 / lookahead_threads=2 / sliced_threads=0 / nr=0 / decimate=1 / interlaced=0 / bluray_compat=0 / constrained_intra=0 / bframes=3 / b_pyramid=2 / b_adapt=2 / b_bias=0 / direct=3 / weightb=1 / open_gop=0 / weightp=2 / keyint=240 / keyint_min=24 / scenecut=40 / intra_refresh=0 / rc_lookahead=60 / rc=crf / mbtree=1 / crf=21.0 / qcomp=0.60 / qpmin=0 / qpmax=69 / qpstep=4 / vbv_maxrate=62500 / vbv_bufsize=78125 / crf_max=0.0 / nal_hrd=none / filler=0 / ip_ratio=1.40 / aq=1:1.00
    Default                     : Yes
    Forced                      : No
    Color range                 : Limited
    Color primaries             : BT.709
    Transfer characteristics    : BT.709
    Matrix coefficients         : BT.709
    Statistics Tags Issue       : mkvmerge v10.0.0 ('To Drown In You') 64bit 2017-09-17 20:05:28 / mkvmerge v10.0.0 ('To Drown In You') 64bit 2017-09-17 20:05:28 / UTC 2017-09-14T03:09:43Z
    FromStats_BitRate           : 10200819
    FromStats_Duration          : 00:43:57.427000000
    FromStats_FrameCount        : 63235
    FromStats_StreamSize        : 3362989432

    Audio #1
    ID                          : 2
    Format                      : AC-3
    Format/Info                 : Audio Coding 3
    Format settings, Endianness : Big
    Codec ID                    : A_AC3
    Duration                    : 43 min 57 s
    Bit rate mode               : Constant
    Bit rate                    : 192 kb/s
    Channel(s)                  : 2 channels
    Channel positions           : Front: L R
    Sampling rate               : 48.0 kHz
    Frame rate                  : 31.250 FPS (1536 SPF)
    Bit depth                   : 16 bits
    Compression mode            : Lossy
    Stream size                 : 60.4 MiB (2%)
    Language                    : Spanish
    Service kind                : Complete Main
    Default                     : Yes
    Forced                      : No
    Statistics Tags Issue       : mkvmerge v10.0.0 ('To Drown In You') 64bit 2017-09-17 20:05:28 / mkvmerge v10.0.0 ('To Drown In You') 64bit 2017-09-17 20:05:28 / UTC 2017-09-14T03:09:43Z
    FromStats_BitRate           : 192000
    FromStats_Duration          : 00:43:55.456000000
    FromStats_FrameCount        : 82358
    FromStats_StreamSize        : 63250944

    Audio #2
    ID                          : 3
    Format                      : DTS
    Format/Info                 : Digital Theater Systems
    Mode                        : 16
    Format settings, Endianness : Big
    Codec ID                    : A_DTS
    Duration                    : 43 min 57 s
    Bit rate mode               : Constant
    Bit rate                    : 1 509 kb/s
    Channel(s)                  : 6 channels
    Channel positions           : Front: L C R, Side: L R, LFE
    Sampling rate               : 48.0 kHz
    Frame rate                  : 93.750 FPS (512 SPF)
    Bit depth                   : 16 bits
    Compression mode            : Lossy
    Stream size                 : 474 MiB (13%)
    Title                       : Surround
    Language                    : English
    Default                     : No
    Forced                      : No
    Statistics Tags Issue       : mkvmerge v10.0.0 ('To Drown In You') 64bit 2017-09-17 20:05:28 / mkvmerge v10.0.0 ('To Drown In You') 64bit 2017-09-17 20:05:28 / UTC 2017-09-14T03:09:43Z
    FromStats_BitRate           : 1508999
    FromStats_Duration          : 00:43:57.462000000
    FromStats_FrameCount        : 247262
    FromStats_StreamSize        : 497491144

    Text #1
    ID                          : 4
    Format                      : PGS
    Muxing mode                 : zlib
    Codec ID                    : S_HDMV/PGS
    Codec ID/Info               : Picture based subtitle format used on BDs/HD-DVDs
    Language                    : English
    Default                     : No
    Forced                      : No
    Statistics Tags Issue       : mkvmerge v10.0.0 ('To Drown In You') 64bit 2017-09-17 20:05:28 / mkvmerge v10.0.0 ('To Drown In You') 64bit 2017-09-17 20:05:28 / UTC 2017-09-14T03:09:43Z
    FromStats_BitRate           : 13914
    FromStats_Duration          : 00:43:53.715000000
    FromStats_FrameCount        : 1161
    FromStats_StreamSize        : 4580884

    Text #2
    ID                          : 5
    Format                      : UTF-8
    Codec ID                    : S_TEXT/UTF8
    Codec ID/Info               : UTF-8 Plain Text
    Default                     : Yes
    Forced                      : No
    Statistics Tags Issue       : mkvmerge v10.0.0 ('To Drown In You') 64bit 2017-09-17 20:05:28 / mkvmerge v10.0.0 ('To Drown In You') 64bit 2017-09-17 20:05:28 / UTC 2017-09-14T03:09:43Z
    FromStats_BitRate           : 82
    FromStats_Duration          : 00:42:55.256000000
    FromStats_FrameCount        : 728
    FromStats_StreamSize        : 26492

    Menu
    00:00:00.000                : :Chapter 1
    00:05:56.356                : :Chapter 2
    00:10:04.395                : :Chapter 3
    00:12:00.762                : :Chapter 4
    00:17:15.785                : :Chapter 5
    00:19:06.187                : :Chapter 6
    00:22:01.529                : :Chapter 7
    00:25:26.525                : :Chapter 8
    00:30:34.958                : :Chapter 9
    00:33:02.522                : :Chapter 10
    00:35:23.580                : :Chapter 11
    00:39:52.307                : :Chapter 12

  • Peso: 3.60 GB Aprox, (73 GB Total)

Sinopsis

La cuarta temporada consta de 24 episodios y se estrenó el 1 de septiembre del 2008 con un especial de 2 horas. Fue filmada en Los Ángeles. El primero de los 24 episodios de esta cuarta temporada fue titulado “Scylla”.12

Durante la primera mitad de esta temporada el equipo liderado por Mike debe hacerse con las seis tarjetas de Scylla, vitales para derrotar a La Compañía. El grupo está configurado por Michael Scofield, Lincoln Burrows, Fernando Sucre, Sara Tancredi, Brad Bellick y Alexander Mahone. Todos ellos están bajo el control de su superior, el agente Donald Self. Para el sexteto, a excepción de Sara, el hacerse con las tarjetas de Scylla es la única manera de liberar sus cargos, y ser libres una vez acabada la misión.

Ficha técnica

Imágenes, Capturas de la película

Video trailer de la película

Enlaces de descarga

Descargar Prison Break (2008) Temporada 4 Full 1080p Latino
Descargar

dpeliculas

Aportes de DPeliculasHDmega la pass es:dpeliculashdmega.org Aportes de CinemaniaHD la pass es:cinemaniahdd.com

PelícuDelas relacionadas

  • La guerra del planeta de los simios (2017) Full 1080p Latino

    2017
    La guerra del planeta de los simios (2017) Full 1080p Latino

    0.0 2 h 20 min 2017

    César (Andy Serkis) jura que no comenzó la guerra. Pero él y su nación de simios genéticamente evolucionados...

    Director: Matt Reeves

    Género: Ciencia ficción

    Actores: Woody Harrelson

  • Dragon Ball Super (2015) Full 1080p Latino

    2015
    Dragon Ball Super (2015) Full 1080p Latino

    4.1 0h 24m 2015

    Si eres un seguidor de la serie Dragon ball super latino, entonces ahora puedes disfrutar de esta maravillosa...

    Director: Akira Toriyama

    Género: Anime

    Actores: Naoki Tatsuta

  • Annabelle: Creation (2017) Full 1080p Latino

    2017
    Annabelle: Creation (2017) Full 1080p Latino

    4.5 1 h 49 min 2017

    Década de los 50. Algunos años después de que Samuel Mullins (Anthony LaPaglia), un fabricante de...

    Director: Jan McWilliams

    Género: Estrenos

    Actores: Ward Horton

  • Llega de noche (2017) Full 1080p Latino

    2017
    Llega de noche (2017) Full 1080p Latino

    1.0 1 h 31 min 2017

    Paul es un padre de familia (Joel Edgerton) que vive junto a su Sarah (Carmen Ejogo) y su hijo adolescente...

    Director: Trey Edward Shults

    Género: Misterio

    Actores: Riley Keough

Comentarios 5
  • Alexis - 05 octubre, 2017

    Amigos … qué series se vienen ? 🙂

    • dpelis

      Administrador
      - 06 octubre, 2017

      por el momento creo q las de flash y arrow

      • Alexis - 06 octubre, 2017

        Dentro de poco subirán las series de Flash y Arrow desde la primera temporada ? o las últimas que se estrenarán ?

        • dpelis

          Administrador
          - 06 octubre, 2017

          desde primera

  • criss - 27 septiembre, 2017

    muchas gracias por este gran aporte, ojala suban la película y también la ultima temporada que se estreno este año. Saludos