Priceless (2016) 1080p Latino

957 vistas
1 estrella2 estrellas3 estrellas4 estrellas5 estrellas (Ninguna valoración todavía)
Cargando…

Información de Priceless (2016) 1080p Latino

Datos de la película

  • Calidad: 1080p
  • Audio: Español Latino AC3 2.0 iTUNES - Ingles AC3 5.1 BLURAY
  • Subtitulos: Español Latino SRT
  • Resolución: 1920x804p
  • Formato: MKV
  • Codec: H.264
  • Encoder: Dpelis
  • Mediainfo: Ver Ver
  • Priceless (2016) 1080p Latino.mkv
    Format                      : Matroska
    Format version              : Version 4 / Version 2
    File size                   : 2.81 GiB
    Duration                    : 1 h 39 min
    Overall bit rate            : 4 040 kb/s
    Movie name                  : DPeliculasHDMega.ORG
    Encoded date                : UTC 2017-09-13 17:16:16 / UTC 2017-09-13T14:16:11Z
    Writing application         : mkvmerge v10.0.0 ('To Drown In You') 64bit
    Writing library             : libebml v1.3.4 + libmatroska v1.4.5 / Lavf57.7.2

    Video
    ID                          : 1
    Format                      : AVC
    Format/Info                 : Advanced Video Codec
    Format profile              : [email protected]
    Format settings, CABAC      : Yes
    Format settings, RefFrames  : 4 frames
    Codec ID                    : V_MPEG4/ISO/AVC
    Duration                    : 1 h 39 min
    Bit rate                    : 3 500 kb/s
    Width                       : 1 920 pixels
    Height                      : 804 pixels
    Display aspect ratio        : 2.40:1
    Frame rate mode             : Constant
    Frame rate                  : 23.976 (24000/1001) FPS
    Color space                 : YUV
    Chroma subsampling          : 4:2:0
    Bit depth                   : 8 bits
    Scan type                   : Progressive
    Bits/(Pixel*Frame)          : 0.095
    Stream size                 : 2.35 GiB (84%)
    Writing library             : x264 core 148 r2708 86b7198
    Encoding settings           : cabac=1 / ref=3 / deblock=1:0:0 / analyse=0x3:0x113 / me=hex / subme=7 / psy=1 / psy_rd=1.00:0.00 / mixed_ref=1 / me_range=16 / chroma_me=1 / trellis=1 / 8x8dct=1 / cqm=0 / deadzone=21,11 / fast_pskip=1 / chroma_qp_offset=-2 / threads=25 / lookahead_threads=4 / sliced_threads=0 / nr=0 / decimate=1 / interlaced=0 / bluray_compat=0 / constrained_intra=0 / bframes=3 / b_pyramid=2 / b_adapt=1 / b_bias=0 / direct=1 / weightb=1 / open_gop=0 / weightp=2 / keyint=240 / keyint_min=24 / scenecut=40 / intra_refresh=0 / rc_lookahead=40 / rc=abr / mbtree=1 / bitrate=3500 / ratetol=1.0 / qcomp=0.60 / qpmin=0 / qpmax=69 / qpstep=4 / vbv_maxrate=62500 / vbv_bufsize=78125 / nal_hrd=none / filler=0 / ip_ratio=1.40 / aq=1:1.00
    Default                     : Yes
    Forced                      : No
    Color range                 : Limited
    Color primaries             : BT.709
    Transfer characteristics    : BT.709
    Matrix coefficients         : BT.709
    Statistics Tags Issue       : mkvmerge v10.0.0 ('To Drown In You') 64bit 2017-09-13 17:16:16 / mkvmerge v10.0.0 ('To Drown In You') 64bit 2017-09-13 17:16:16 / UTC 2017-09-13T14:16:11Z
    FromStats_BitRate           : 3461969
    FromStats_Duration          : 01:39:27.754000000
    FromStats_FrameCount        : 143083
    FromStats_StreamSize        : 2582522703

    Audio #1
    ID                          : 2
    Format                      : AC-3
    Format/Info                 : Audio Coding 3
    Format settings, Endianness : Big
    Codec ID                    : A_AC3
    Duration                    : 1 h 39 min
    Bit rate mode               : Constant
    Bit rate                    : 192 kb/s
    Channel(s)                  : 2 channels
    Channel positions           : Front: L R
    Sampling rate               : 48.0 kHz
    Frame rate                  : 31.250 FPS (1536 SPF)
    Bit depth                   : 16 bits
    Compression mode            : Lossy
    Delay relative to video     : -5 ms
    Stream size                 : 137 MiB (5%)
    Language                    : Spanish
    Service kind                : Complete Main
    Default                     : Yes
    Forced                      : No
    Statistics Tags Issue       : mkvmerge v10.0.0 ('To Drown In You') 64bit 2017-09-13 17:16:16 / mkvmerge v10.0.0 ('To Drown In You') 64bit 2017-09-13 17:16:16 / UTC 2017-09-13T14:16:11Z
    FromStats_BitRate           : 192000
    FromStats_Duration          : 01:39:27.712000000
    FromStats_FrameCount        : 186491
    FromStats_StreamSize        : 143225088

    Audio #2
    ID                          : 3
    Format                      : AC-3
    Format/Info                 : Audio Coding 3
    Format settings, Endianness : Big
    Codec ID                    : A_AC3
    Duration                    : 1 h 39 min
    Bit rate mode               : Constant
    Bit rate                    : 384 kb/s
    Channel(s)                  : 6 channels
    Channel positions           : Front: L C R, Side: L R, LFE
    Sampling rate               : 48.0 kHz
    Frame rate                  : 31.250 FPS (1536 SPF)
    Bit depth                   : 16 bits
    Compression mode            : Lossy
    Delay relative to video     : -5 ms
    Stream size                 : 273 MiB (10%)
    Title                       : Surround
    Service kind                : Complete Main
    Default                     : No
    Forced                      : No
    Statistics Tags Issue       : mkvmerge v10.0.0 ('To Drown In You') 64bit 2017-09-13 17:16:16 / mkvmerge v10.0.0 ('To Drown In You') 64bit 2017-09-13 17:16:16 / UTC 2017-09-13T14:16:11Z
    FromStats_BitRate           : 384000
    FromStats_Duration          : 01:39:27.744000000
    FromStats_FrameCount        : 186492
    FromStats_StreamSize        : 286451712

    Text
    ID                          : 4
    Format                      : UTF-8
    Codec ID                    : S_TEXT/UTF8
    Codec ID/Info               : UTF-8 Plain Text
    Language                    : Spanish
    Default                     : No
    Forced                      : No
    Statistics Tags Issue       : mkvmerge v10.0.0 ('To Drown In You') 64bit 2017-09-13 17:16:16 / mkvmerge v10.0.0 ('To Drown In You') 64bit 2017-09-13 17:16:16 / UTC 2017-09-13T14:16:11Z
    FromStats_BitRate           : 40
    FromStats_Duration          : 01:34:52.714000000
    FromStats_FrameCount        : 1075
    FromStats_StreamSize        : 29118

    Menu
    00:00:00.000                : :00:00:00.000
    00:05:17.526                : :00:05:17.275
    00:08:59.581                : :00:08:59.581
    00:14:58.314                : :00:14:58.189
    00:21:57.775                : :00:21:57.691
    00:25:50.549                : :00:25:50.340
    00:28:59.655                : :00:28:59.446
    00:35:19.618                : :00:35:19.617
    00:40:45.360                : :00:40:45.151
    00:46:34.208                : :00:46:34.125
    00:50:53.217                : :00:50:53.008
    00:55:20.734                : :00:55:20.734
    01:00:35.632                : :01:00:35.590
    01:04:54.182                : :01:04:54.015
    01:08:41.951                : :01:08:41.784
    01:13:42.043                : :01:13:41.876
    01:19:25.261                : :01:19:25.219
    01:23:12.237                : :01:23:11.945
    01:29:56.433                : :01:29:56.099
    01:35:33.895                : :01:35:33.686

  • Peso: 2.81 GB

Sinopsis

Un viudo que pierde la custodia de su hija también pierde su empleo. Así que acepta conducir un camión por todo el país, sin hacer preguntas.

Ficha técnica

  • Titulo original: Priceless
  • Fecha de lanzamiento: 14-10-2016 (United States of America)
  • Director: Ben Smallbone
  • Género: Drama, Romance
  • Puntuación: 0.0 0 votos
  • Duración:
    1h 37m

Imágenes, Capturas de la película

Video trailer de la película

Enlaces de descarga

Descargar Priceless (2016) 1080p Latino
Descargar

dpeliculas

Aportes de DPeliculasHDmega la pass es:dpeliculashdmega.org Aportes de CinemaniaHD la pass es:cinemaniahdd.com
Guardado en : Drama , Romance

PelícuDelas relacionadas

Comentarios 0