Precious Cargo (2016) 1080p Latino

1.179 vistas
1 estrella2 estrellas3 estrellas4 estrellas5 estrellas (Ninguna valoración todavía)
Cargando…

Información de Precious Cargo (2016) 1080p Latino

Datos de la película

  • Calidad: 1080p
  • Audio: Español Latino AC3 2.0 Capturado - Ingles AC3 5.1 BLURAY
  • Subtitulos: Español Latino SRT - Ingles SRT
  • Resolución: 1920x800p
  • Formato: MKV
  • Codec: H.264
  • Encoder: Dpelis
  • Mediainfo: Ver Ver
  • Precious.cargo.2016.LATINO.mkv
    Format                      : Matroska
    Format version              : Version 4 / Version 2
    File size                   : 2.55 GiB
    Duration                    : 1 h 29 min
    Overall bit rate            : 4 052 kb/s
    Movie name                  : DPeliculasHDMega.ORG
    Encoded date                : UTC 2017-06-11 21:54:11 / UTC 2017-06-11T20:44:43Z
    Writing application         : mkvmerge v10.0.0 ('To Drown In You') 64bit
    Writing library             : libebml v1.3.4 + libmatroska v1.4.5 / Lavf57.7.2

    Video
    ID                          : 1
    Format                      : AVC
    Format/Info                 : Advanced Video Codec
    Format profile              : [email protected]
    Format settings, CABAC      : Yes
    Format settings, ReFrames   : 4 frames
    Codec ID                    : V_MPEG4/ISO/AVC
    Duration                    : 1 h 29 min
    Bit rate                    : 3 500 kb/s
    Width                       : 1 920 pixels
    Height                      : 800 pixels
    Display aspect ratio        : 2.40:1
    Frame rate mode             : Constant
    Frame rate                  : 23.976 (24000/1001) FPS
    Color space                 : YUV
    Chroma subsampling          : 4:2:0
    Bit depth                   : 8 bits
    Scan type                   : Progressive
    Bits/(Pixel*Frame)          : 0.095
    Stream size                 : 2.11 GiB (83%)
    Writing library             : x264 core 148 r2708 86b7198
    Encoding settings           : cabac=1 / ref=3 / deblock=1:0:0 / analyse=0x3:0x113 / me=hex / subme=7 / psy=1 / psy_rd=1.00:0.00 / mixed_ref=1 / me_range=16 / chroma_me=1 / trellis=1 / 8x8dct=1 / cqm=0 / deadzone=21,11 / fast_pskip=1 / chroma_qp_offset=-2 / threads=12 / lookahead_threads=2 / sliced_threads=0 / nr=0 / decimate=1 / interlaced=0 / bluray_compat=0 / constrained_intra=0 / bframes=3 / b_pyramid=2 / b_adapt=1 / b_bias=0 / direct=1 / weightb=1 / open_gop=0 / weightp=2 / keyint=240 / keyint_min=24 / scenecut=40 / intra_refresh=0 / rc_lookahead=40 / rc=abr / mbtree=1 / bitrate=3500 / ratetol=1.0 / qcomp=0.60 / qpmin=0 / qpmax=69 / qpstep=4 / vbv_maxrate=62500 / vbv_bufsize=78125 / nal_hrd=none / filler=0 / ip_ratio=1.40 / aq=1:1.00
    Default                     : Yes
    Forced                      : No
    Color range                 : Limited
    Color primaries             : BT.709
    Transfer characteristics    : BT.709
    Matrix coefficients         : BT.709
    Statistics Tags Issue       : mkvmerge v10.0.0 ('To Drown In You') 64bit 2017-06-11 21:54:11 / mkvmerge v10.0.0 ('To Drown In You') 64bit 2017-06-11 21:54:11 / UTC 2017-06-11T20:44:43Z
    FromStats_BitRate           : 3442233
    FromStats_Duration          : 01:29:56.391000000
    FromStats_FrameCount        : 129384
    FromStats_StreamSize        : 2321954914

    Audio #1
    ID                          : 2
    Format                      : AC-3
    Format/Info                 : Audio Coding 3
    Format settings, Endianness : Big
    Codec ID                    : A_AC3
    Duration                    : 1 h 29 min
    Bit rate mode               : Constant
    Bit rate                    : 224 kb/s
    Channel(s)                  : 2 channels
    Channel positions           : Front: L R
    Sampling rate               : 48.0 kHz
    Frame rate                  : 31.250 FPS (1536 spf)
    Bit depth                   : 16 bits
    Compression mode            : Lossy
    Delay relative to video     : -5 ms
    Stream size                 : 144 MiB (6%)
    Title                       : Stereo
    Language                    : Spanish
    Service kind                : Complete Main
    Default                     : Yes
    Forced                      : No
    Statistics Tags Issue       : mkvmerge v10.0.0 ('To Drown In You') 64bit 2017-06-11 21:54:11 / mkvmerge v10.0.0 ('To Drown In You') 64bit 2017-06-11 21:54:11 / UTC 2017-06-11T20:44:43Z
    FromStats_BitRate           : 224000
    FromStats_Duration          : 01:29:57.856000000
    FromStats_FrameCount        : 168683
    FromStats_StreamSize        : 151139968

    Audio #2
    ID                          : 3
    Format                      : AC-3
    Format/Info                 : Audio Coding 3
    Format settings, Endianness : Big
    Codec ID                    : A_AC3
    Duration                    : 1 h 29 min
    Bit rate mode               : Constant
    Bit rate                    : 384 kb/s
    Channel(s)                  : 6 channels
    Channel positions           : Front: L C R, Side: L R, LFE
    Sampling rate               : 48.0 kHz
    Frame rate                  : 31.250 FPS (1536 spf)
    Bit depth                   : 16 bits
    Compression mode            : Lossy
    Delay relative to video     : -5 ms
    Stream size                 : 247 MiB (9%)
    Title                       : Surround
    Language                    : English
    Service kind                : Complete Main
    Default                     : No
    Forced                      : No
    Statistics Tags Issue       : mkvmerge v10.0.0 ('To Drown In You') 64bit 2017-06-11 21:54:11 / mkvmerge v10.0.0 ('To Drown In You') 64bit 2017-06-11 21:54:11 / UTC 2017-06-11T20:44:43Z
    FromStats_BitRate           : 384000
    FromStats_Duration          : 01:29:56.416000000
    FromStats_FrameCount        : 168638
    FromStats_StreamSize        : 259027968

    Text #1
    ID                          : 4
    Format                      : UTF-8
    Codec ID                    : S_TEXT/UTF8
    Codec ID/Info               : UTF-8 Plain Text
    Language                    : Spanish
    Default                     : Yes
    Forced                      : No
    Statistics Tags Issue       : mkvmerge v10.0.0 ('To Drown In You') 64bit 2017-06-11 21:54:11 / mkvmerge v10.0.0 ('To Drown In You') 64bit 2017-06-11 21:54:11 / UTC 2017-06-11T20:44:43Z
    FromStats_BitRate           : 59
    FromStats_Duration          : 01:27:53.602000000
    FromStats_FrameCount        : 1057
    FromStats_StreamSize        : 38984

    Text #2
    ID                          : 5
    Format                      : UTF-8
    Codec ID                    : S_TEXT/UTF8
    Codec ID/Info               : UTF-8 Plain Text
    Language                    : English
    Default                     : No
    Forced                      : No
    Statistics Tags Issue       : mkvmerge v10.0.0 ('To Drown In You') 64bit 2017-06-11 21:54:11 / mkvmerge v10.0.0 ('To Drown In You') 64bit 2017-06-11 21:54:11 / UTC 2017-06-11T20:44:43Z
    FromStats_BitRate           : 60
    FromStats_Duration          : 01:27:53.602000000
    FromStats_FrameCount        : 1057
    FromStats_StreamSize        : 39788

    Menu
    00:00:00.000                : :Chapter 1
    00:08:58.621                : :Chapter 2
    00:12:51.938                : :Chapter 3
    00:16:55.848                : :Chapter 4
    00:25:43.208                : :Chapter 5
    00:32:43.128                : :Chapter 6
    00:36:33.900                : :Chapter 7
    00:42:13.197                : :Chapter 8
    00:46:02.551                : :Chapter 9
    00:52:33.734                : :Chapter 10
    00:58:46.690                : :Chapter 11
    01:02:41.466                : :Chapter 12
    01:06:36.576                : :Chapter 13
    01:08:36.696                : :Chapter 14
    01:12:46.904                : :Chapter 15
    01:21:35.057                : :Chapter 16
    01:29:56.182                : :Chapter 17

  • Peso: 2.55 GB

Sinopsis

Jack, un ladrón de joyas que opera a nivel internacional, se deja convencer por su antigua amante, Karen, para llevar a cabo un peligroso golpe, tras el que ella recuperará la confianza de Eddie, un veterano capo de la mafia. Por desgracia, el trabajo se complica.

Bruce Willis anda de capa caída, por lo que en los últimos tiempos trabaja en mediocres producciones de acción, que apenas tienen repercusión. En esta ocasión se apunta a un papel secundario (el del malo de turno) y se pone a las órdenes del desconocido director Max Adams, hasta el momento autor de cortos, que también ha escrito el guión. El conjunto acaba siendo una rutinaria cinta de acción, que tiene un acertado tono de comedia y un buen trabajo del semidesconocido Mark-Paul Gosselaar. Gustará sólo a los amantes del género pero no demasiado críticos.

Ficha técnica

Imágenes, Capturas de la película

Video trailer de la película

Enlaces de descarga

Descargar Precious Cargo (2016) 1080p Latino
Descargar

dpeliculas

Aportes de DPeliculasHDmega la pass es:dpeliculashdmega.org Aportes de CinemaniaHD la pass es:cinemaniahdd.com
Guardado en : Acción , Crimen , Drama , Suspense

PelícuDelas relacionadas

  • Operation Mekong (2016) 1080p Latino

    2016
    Operation Mekong (2016) 1080p Latino

    0.0 2h 4m 2016

    A lo largo del río Mekong se encuentra el llamado triángulo dorado, uno de los mayores proveedores...

    Director: Dante Lam

    Género: Acción

    Actores: Zhao Jian

  • Collide (2016) 1080p Latino

    2016
    Collide (2016) 1080p Latino

    0.0 1h 39m 2016

    Descargar Persecucion al limite hd latino. Tambien conocida como Collide 1080p Cuando uno de los atracos...

    Director: Eran Creevy

    Género: Acción

    Actores: Nicholas Hoult

  • Gold la gran estafa (2016) 1080p Latino

    2016
    Gold la gran estafa (2016) 1080p Latino

    0.0 2h 1m 2016

    Descarga Gold hd latino, también conocida La gran estafa 1080p latino Kenny Wells es un fracasado hombre...

    Director: Stephen Gaghan

    Género: Aventura

    Actores: Yothin Mapobphun

  • Juego de Tronos (2016) Temporada 6 Full Latino

    2011/03/17
    Juego de Tronos (2016) Temporada 6 Full Latino

    0.0 60 Min. 2011/03/17

    Descargar gratis Juego de Tronos (2016) Temporada 6 Full Latino Sinopsis capitulo 1: Jon Nieve está...

    Director: David Benioff

    Género: Drama

    Actores: Sophie Turner

Comentarios 0