Por Qué Él (2016) FULL 1080p x265 Latino

860 vistas
1 estrella2 estrellas3 estrellas4 estrellas5 estrellas (1 votos, promedio: 4,00 de 5)
Cargando…

Información de Por Qué Él (2016) FULL 1080p x265 Latino

Datos de la película

  • Calidad: Full 1080p
  • Audio: Español Latino AC3 5.1 BLURAY - Ingles DTS 5.1 BLURAY
  • Subtitulos: Español Latino SRT
  • Resolución: 1920x1080p
  • Formato: MKV
  • Codec: H.265
  • Encoder:
  • Mediainfo: Ver Ver
  • Por Qué Él (2016) 1080p BluRay x265 HEVC DTS Dual Latino.mkv
    Format                      : Matroska
    Format version              : Version 4 / Version 2
    File size                   : 4.12 GiB
    Duration                    : 1h 51mn
    Overall bit rate            : 5 302 Kbps
    Encoded date                : UTC 2017-04-17 11:26:25
    Writing application         : mkvmerge v8.6.1 ('Flying') 64bit
    Writing library             : libebml v1.3.3 + libmatroska v1.4.4
    DURATION                    : 01:50:09.437000000
    NUMBER_OF_FRAMES            : 4844
    NUMBER_OF_BYTES             : 42430305
    _STATISTICS_WRITING_APP     : mkvmerge v8.6.1 ('Flying') 64bit
    _STATISTICS_WRITING_DATE_UT : 2017-04-17 11:26:25
    _STATISTICS_TAGS            : BPS DURATION NUMBER_OF_FRAMES NUMBER_OF_BYTES

    Video
    ID                          : 1
    Format                      : HEVC
    Format/Info                 : High Efficiency Video Coding
    Format profile              : [email protected]@Main
    Codec ID                    : V_MPEGH/ISO/HEVC
    Duration                    : 1h 51mn
    Bit rate                    : 3 240 Kbps
    Width                       : 1 920 pixels
    Height                      : 1 080 pixels
    Display aspect ratio        : 16:9
    Frame rate mode             : Constant
    Frame rate                  : 23.976 fps
    Color space                 : YUV
    Chroma subsampling          : 4:2:0
    Bit depth                   : 8 bits
    Bits/(Pixel*Frame)          : 0.065
    Stream size                 : 2.52 GiB (61%)
    Writing library             : x265 2.1:[Windows][GCC 5.4.0][64 bit] 8bit
    Encoding settings           : wpp / ctu=64 / min-cu-size=8 / max-tu-size=32 / tu-intra-depth=1 / tu-inter-depth=1 / me=3 / subme=3 / merange=57 / rect / no-amp / max-merge=3 / temporal-mvp / no-early-skip / rskip / rdpenalty=0 / no-tskip / no-tskip-fast / strong-intra-smoothing / no-lossless / no-cu-lossless / no-constrained-intra / no-fast-intra / open-gop / no-temporal-layers / interlace=0 / keyint=240 / min-keyint=24 / scenecut=40 / rc-lookahead=25 / lookahead-slices=4 / bframes=4 / bframe-bias=0 / b-adapt=2 / ref=4 / limit-refs=3 / limit-modes / weightp / no-weightb / aq-mode=1 / qg-size=32 / aq-strength=1.00 / cbqpoffs=0 / crqpoffs=0 / rd=4 / psy-rd=2.00 / rdoq-level=2 / psy-rdoq=1.00 / log2-max-poc-lsb=8 / no-rd-refine / signhide / deblock=0:0 / sao / no-sao-non-deblock / b-pyramid / cutree / no-intra-refresh / rc=crf / crf=20.0 / qcomp=0.60 / qpmin=0 / qpmax=69 / qpstep=4 / ipratio=1.40 / pbratio=1.30
    Default                     : Yes
    Forced                      : No
    Color range                 : Limited
    Color primaries             : BT.709
    Transfer characteristics    : BT.709
    Matrix coefficients         : BT.709
    DURATION                    : 01:51:12.625000000
    NUMBER_OF_FRAMES            : 159983
    NUMBER_OF_BYTES             : 2745282376
    _STATISTICS_WRITING_APP     : mkvmerge v8.6.1 ('Flying') 64bit
    _STATISTICS_WRITING_DATE_UT : 2017-04-17 11:26:25
    _STATISTICS_TAGS            : BPS DURATION NUMBER_OF_FRAMES NUMBER_OF_BYTES

    Audio #1
    ID                          : 2
    Format                      : AC-3
    Format/Info                 : Audio Coding 3
    Mode extension              : CM (complete main)
    Format settings, Endianness : Big
    Codec ID                    : A_AC3
    Duration                    : 1h 51mn
    Bit rate mode               : Constant
    Bit rate                    : 448 Kbps
    Channel(s)                  : 6 channels
    Channel positions           : Front: L C R, Side: L R, LFE
    Sampling rate               : 48.0 KHz
    Compression mode            : Lossy
    Stream size                 : 356 MiB (8%)
    Title                       : Español Latino AC3 5.1 [448 Kbps]
    Language                    : Spanish
    Default                     : Yes
    Forced                      : No

    Audio #2
    ID                          : 3
    Format                      : DTS
    Format/Info                 : Digital Theater Systems
    Mode                        : 16
    Format settings, Endianness : Big
    Codec ID                    : A_DTS
    Duration                    : 1h 51mn
    Bit rate mode               : Constant
    Bit rate                    : 1 509 Kbps
    Channel(s)                  : 6 channels
    Channel positions           : Front: L C R, Side: L R, LFE
    Sampling rate               : 48.0 KHz
    Bit depth                   : 24 bits
    Compression mode            : Lossy
    Stream size                 : 1.17 GiB (28%)
    Title                       : Inglés DTS 5.1 [1509 Kbps]
    Language                    : English
    Default                     : No
    Forced                      : No

    Text #1
    ID                          : 4
    Format                      : UTF-8
    Codec ID                    : S_TEXT/UTF8
    Codec ID/Info               : UTF-8 Plain Text
    Title                       : Subtítulos Español Latino - Forzados [SRT]
    Language                    : Spanish
    Default                     : No
    Forced                      : Yes

    Text #2
    ID                          : 5
    Format                      : UTF-8
    Codec ID                    : S_TEXT/UTF8
    Codec ID/Info               : UTF-8 Plain Text
    Title                       : Subtítulos Español Latino [SRT]
    Language                    : Spanish
    Default                     : No
    Forced                      : No

    Text #3
    ID                          : 6
    Format                      : PGS
    Codec ID                    : S_HDMV/PGS
    Codec ID/Info               : Picture based subtitle format used on BDs/HD-DVDs
    Title                       : Subtítulos Español Latino [PGS]
    Language                    : Spanish
    Default                     : No
    Forced                      : No

    Menu
    00:00:00.000                : :Chapter 1
    00:05:00.550                : :Chapter 2
    00:09:34.365                : :Chapter 3
    00:12:33.711                : :Chapter 4
    00:18:06.961                : :Chapter 5
    00:21:08.642                : :Chapter 6
    00:25:57.264                : :Chapter 7
    00:30:19.818                : :Chapter 8
    00:35:45.101                : :Chapter 9
    00:42:06.482                : :Chapter 10
    00:45:49.705                : :Chapter 11
    00:49:13.284                : :Chapter 12
    00:55:03.634                : :Chapter 13
    00:57:58.892                : :Chapter 14
    01:03:01.069                : :Chapter 15
    01:08:44.871                : :Chapter 16
    01:12:01.108                : :Chapter 17
    01:19:14.625                : :Chapter 18
    01:23:03.812                : :Chapter 19
    01:26:36.358                : :Chapter 20
    01:31:44.916                : :Chapter 21
    01:35:31.684                : :Chapter 22
    01:40:05.416                : :Chapter 23
    01:45:13.724                : :Chapter 24

  • Peso: 4.12 GB

Sinopsis

Narra la rivalidad entre Ned (Bryan Cranston), un padre hiperprotector, y el nuevo novio de su amada hija, estudiante en Stanford. Él resulta ser Laird Mayhew (James Franco), un multimillonario de Silicon Valley pero socialmente poco convencional.

Ficha técnica

  • Titulo original: Why Him?
  • Fecha de lanzamiento: 22-12-2016 (United States of America)
  • Director: John Hamburg
  • Género: 1080p x265 HEVC, Comedia
  • Puntuación: 4.0 1 votos
  • Duración:
    1h 51m

Imágenes, Capturas de la película

Video trailer de la película

Enlaces de descarga

Descargar
Descargar Por Qué Él (2016) FULL 1080p x265 Latino

dpeliculas

Aportes de DPeliculasHDmega la pass es:dpeliculashdmega.org Aportes de CinemaniaHD la pass es:cinemaniahdd.com
Guardado en : 1080p x265 HEVC , Comedia

PelícuDelas relacionadas

Comentarios 1
  • leonidas - 20 abril, 2017

    Exelente aporte y en h265, muchas gracias