Poesía sin fin (2016) Full 1080p Latino

988 vistas
1 estrella2 estrellas3 estrellas4 estrellas5 estrellas (Ninguna valoración todavía)
Cargando…

Información de Poesía sin fin (2016) Full 1080p Latino

Datos de la película

  • Calidad: Full 1080p
  • Audio: Español DTS 5.1 BLURAY
  • Subtitulos: Español Latino PGS
  • Resolución: 1920x1080p
  • Formato: MKV
  • Codec: H.264
  • Encoder: Dpelis
  • Mediainfo: Ver Ver
  • Poesia.sin.fin.2016.1080p.latino-Dpelis.mkv
    Format                      : Matroska
    Format version              : Version 4 / Version 2
    File size                   : 8.40 GiB
    Duration                    : 2 h 8 min
    Overall bit rate            : 9 352 kb/s
    Movie name                  : DPeliculasHDMega.ORG
    Encoded date                : UTC 2017-05-14 13:51:04 / UTC 2017-05-14T04:54:21Z
    Writing application         : mkvmerge v10.0.0 ('To Drown In You') 64bit
    Writing library             : libebml v1.3.4 + libmatroska v1.4.5 / Lavf57.7.2

    Video
    ID                          : 1
    Format                      : AVC
    Format/Info                 : Advanced Video Codec
    Format profile              : [email protected]
    Format settings, CABAC      : Yes
    Format settings, ReFrames   : 4 frames
    Codec ID                    : V_MPEG4/ISO/AVC
    Duration                    : 2 h 8 min
    Bit rate                    : 8 397 kb/s
    Width                       : 1 920 pixels
    Height                      : 1 080 pixels
    Display aspect ratio        : 16:9
    Frame rate mode             : Constant
    Frame rate                  : 24.000 FPS
    Color space                 : YUV
    Chroma subsampling          : 4:2:0
    Bit depth                   : 8 bits
    Scan type                   : Progressive
    Bits/(Pixel*Frame)          : 0.169
    Stream size                 : 7.54 GiB (90%)
    Writing library             : x264 core 148 r2708 86b7198
    Encoding settings           : cabac=1 / ref=4 / deblock=1:0:0 / analyse=0x3:0x133 / me=esa / subme=9 / psy=1 / psy_rd=1.00:0.00 / mixed_ref=1 / me_range=16 / chroma_me=1 / trellis=2 / 8x8dct=1 / cqm=0 / deadzone=21,11 / fast_pskip=1 / chroma_qp_offset=-2 / threads=12 / lookahead_threads=1 / sliced_threads=0 / nr=0 / decimate=1 / interlaced=0 / bluray_compat=0 / constrained_intra=0 / bframes=3 / b_pyramid=2 / b_adapt=2 / b_bias=0 / direct=3 / weightb=1 / open_gop=0 / weightp=2 / keyint=240 / keyint_min=24 / scenecut=40 / intra_refresh=0 / rc_lookahead=60 / rc=crf / mbtree=1 / crf=20.0 / qcomp=0.60 / qpmin=0 / qpmax=69 / qpstep=4 / vbv_maxrate=62500 / vbv_bufsize=78125 / crf_max=0.0 / nal_hrd=none / filler=0 / ip_ratio=1.40 / aq=1:1.00
    Default                     : Yes
    Forced                      : No
    Color range                 : Limited
    Color primaries             : BT.709
    Transfer characteristics    : BT.709
    Matrix coefficients         : BT.709
    Statistics Tags Issue       : mkvmerge v10.0.0 ('To Drown In You') 64bit 2017-05-14 13:51:04 / mkvmerge v10.0.0 ('To Drown In You') 64bit 2017-05-14 13:51:04 / UTC 2017-05-14T04:54:21Z
    FromStats_BitRate           : 8581190
    FromStats_Duration          : 02:08:34.000000000
    FromStats_FrameCount        : 185136
    FromStats_StreamSize        : 8274413155

    Audio
    ID                          : 2
    Format                      : DTS
    Format/Info                 : Digital Theater Systems
    Mode                        : 16
    Format settings, Endianness : Big
    Codec ID                    : A_DTS
    Duration                    : 2 h 8 min
    Bit rate mode               : Constant
    Bit rate                    : 768 kb/s
    Channel(s)                  : 6 channels
    Channel positions           : Front: L C R, Side: L R, LFE
    Sampling rate               : 48.0 kHz
    Frame rate                  : 93.750 FPS (512 spf)
    Bit depth                   : 24 bits
    Compression mode            : Lossy
    Stream size                 : 706 MiB (8%)
    Title                       : Surround
    Language                    : Spanish
    Default                     : Yes
    Forced                      : No
    Statistics Tags Issue       : mkvmerge v10.0.0 ('To Drown In You') 64bit 2017-05-14 13:51:04 / mkvmerge v10.0.0 ('To Drown In You') 64bit 2017-05-14 13:51:04 / UTC 2017-05-14T04:54:21Z
    FromStats_BitRate           : 768000
    FromStats_Duration          : 02:08:33.984000000
    FromStats_FrameCount        : 723186
    FromStats_StreamSize        : 740542464

    Menu
    00:00:00.000                : :Chapter 1
    00:12:15.792                : :Chapter 2
    00:28:22.042                : :Chapter 3
    00:37:25.875                : :Chapter 4
    00:48:24.708                : :Chapter 5
    00:57:21.917                : :Chapter 6
    01:07:27.667                : :Chapter 7
    01:17:40.417                : :Chapter 8
    01:28:37.625                : :Chapter 9
    01:44:13.750                : :Chapter 10
    01:51:16.958                : :Chapter 11
    02:03:33.333                : :Chapter 12

  • Peso: 8.40 GB

Sinopsis

Alejandro Jodorowsky ha dejado su infancia y el hogar Tocopilla con su familia a trasladarse a Santiago, donde luchará por encontrar su propio camino en un entorno perfecto. En la capital, llena de artistas, iniciada por su primo Ricardo Cereceda y sus hermanas una forma de poesía, que pondrá a prueba todos los límites, otros poetas contemporáneos jóvenes Enrique Lihn, Nicanor Parra y Stella Díaz Varín, su primer amor.

 

Poesía Sin Fin retrata los años de juventud de Alejandro Jodorowsky (El topo), quien además dirige el filme. En el reparto encontramos a Brontis Jodorowskym (La danza de la realidad), Pamela Flores (Jimmy Rivière), Adan Jodorowsky (2 días en París), Jeremias Herskovits (La danza de la realidad) y Leandro Taub, entre otros.

Ficha técnica

Imágenes, Capturas de la película

Video trailer de la película

Enlaces de descarga

Descargar Poesía sin fin (2016) Full 1080p Latino
Descargar
Descargar

dpeliculas

Aportes de DPeliculasHDmega la pass es:dpeliculashdmega.org Aportes de CinemaniaHD la pass es:cinemaniahdd.com

PelícuDelas relacionadas

  • Nightmare on Elm street 7 (1994) Full Latino

    1994
    Nightmare on Elm street 7 (1994) Full Latino

    0.0 0h 0m 1994

    Descargar gratis Nightmare on Elm street 7 (1994) Full Latino Mega. La actriz que protagonizó la primera...

    Director: Wes Craven

    Género: Fantasía

    Actores: Yonda Davis

  • Sahara (2017) Full Latino

    2017
    Sahara (2017) Full Latino

    0.0 0h 0m 2017

    Descargar gratis Sahara (2017) Full Latino Mega. Cansados de ser el chivo expiatorio de su comunidad,...

    Director: Pierre Coré

    Género: Animación

    Actores: Vincent Lacoste

  • You Get Me (2017) Webdl 1080p Latino

    2017
    You Get Me (2017) Webdl 1080p Latino

    0.0 1h 29m 2017

    Tyler está enamorado de su novia Ali, pero tras una discusión pasa una noche inolvidable con la sexy...

    Director: Brent Bonacorso

    Género: Drama

    Actores: Taylor John Smith

  • T2 Trainspotting (2017) Full 1080p Latino

    2017
    T2 Trainspotting (2017) Full 1080p Latino

    5.0 1h 57m 2017

    Han pasado 20 años desde que Mark Renton abandonara Escocia, y la heroína. Ahora, Renton vuelve a su...

    Director: Sylvia Parker

    Género: Crimen

    Actores: Tom Urie

  • Potosí (2013) WEBDL 1080p Latino

    2013
    Potosí (2013) WEBDL 1080p Latino

    0.0 0h 0m 2013

    Este largometraje con Alfredo Castruita en la dirección se estrenó en 2013 en festivales pero no ha...

    Director: Alfredo Castruita

    Género: Crimen

    Actores: Sonia Couoh

Comentarios 0