Planetarium (2016) 1080p Latino

1.288 vistas
1 estrella2 estrellas3 estrellas4 estrellas5 estrellas (Ninguna valoración todavía)
Cargando…

Información de Planetarium (2016) 1080p Latino

Datos de la película

  • Calidad: 1080p
  • Audio: Se especifica abajo de la Sinopsis
  • Subtitulos: Español Latino SRT - Ingles SRT
  • Resolución: 1920x804
  • Formato: MKV
  • Codec: H.264
  • Encoder: Dpelis
  • Mediainfo: Ver Ver
  • Planetarium 2016 1080p Latino.mkv
    Format                      : Matroska
    Format version              : Version 4 / Version 2
    File size                   : 3.14 GiB
    Duration                    : 1 h 48 min
    Overall bit rate            : 4 151 kb/s
    Movie name                  : DPeliculasHDMega.ORG
    Encoded date                : UTC 2017-07-18 02:33:58 / UTC 2017-07-18T00:52:57Z
    Writing application         : mkvmerge v10.0.0 ('To Drown In You') 64bit
    Writing library             : libebml v1.3.4 + libmatroska v1.4.5 / Lavf57.7.2

    Video
    ID                          : 1
    Format                      : AVC
    Format/Info                 : Advanced Video Codec
    Format profile              : [email protected]
    Format settings, CABAC      : Yes
    Format settings, ReFrames   : 4 frames
    Codec ID                    : V_MPEG4/ISO/AVC
    Duration                    : 1 h 48 min
    Bit rate                    : 3 500 kb/s
    Width                       : 1 920 pixels
    Height                      : 804 pixels
    Display aspect ratio        : 2.40:1
    Frame rate mode             : Constant
    Frame rate                  : 24.000 FPS
    Color space                 : YUV
    Chroma subsampling          : 4:2:0
    Bit depth                   : 8 bits
    Scan type                   : Progressive
    Bits/(Pixel*Frame)          : 0.094
    Stream size                 : 2.59 GiB (83%)
    Writing library             : x264 core 148 r2708 86b7198
    Encoding settings           : cabac=1 / ref=3 / deblock=1:0:0 / analyse=0x3:0x113 / me=hex / subme=7 / psy=1 / psy_rd=1.00:0.00 / mixed_ref=1 / me_range=16 / chroma_me=1 / trellis=1 / 8x8dct=1 / cqm=0 / deadzone=21,11 / fast_pskip=1 / chroma_qp_offset=-2 / threads=12 / lookahead_threads=2 / sliced_threads=0 / nr=0 / decimate=1 / interlaced=0 / bluray_compat=0 / constrained_intra=0 / bframes=3 / b_pyramid=2 / b_adapt=1 / b_bias=0 / direct=1 / weightb=1 / open_gop=0 / weightp=2 / keyint=240 / keyint_min=24 / scenecut=40 / intra_refresh=0 / rc_lookahead=40 / rc=2pass / mbtree=1 / bitrate=3500 / ratetol=1.0 / qcomp=0.60 / qpmin=0 / qpmax=69 / qpstep=4 / cplxblur=20.0 / qblur=0.5 / vbv_maxrate=62500 / vbv_bufsize=78125 / nal_hrd=none / filler=0 / ip_ratio=1.40 / aq=1:1.00
    Default                     : Yes
    Forced                      : No
    Color range                 : Limited
    Color primaries             : BT.709
    Transfer characteristics    : BT.709
    Matrix coefficients         : BT.709
    Statistics Tags Issue       : mkvmerge v10.0.0 ('To Drown In You') 64bit 2017-07-18 02:33:58 / mkvmerge v10.0.0 ('To Drown In You') 64bit 2017-07-18 02:33:58 / UTC 2017-07-18T00:52:57Z
    FromStats_BitRate           : 3499907
    FromStats_Duration          : 01:48:07.042000000
    FromStats_FrameCount        : 155689
    FromStats_StreamSize        : 2838005642

    Audio #1
    ID                          : 2
    Format                      : AC-3
    Format/Info                 : Audio Coding 3
    Format settings, Endianness : Big
    Codec ID                    : A_AC3
    Duration                    : 1 h 48 min
    Bit rate mode               : Constant
    Bit rate                    : 256 kb/s
    Channel(s)                  : 2 channels
    Channel positions           : Front: L R
    Sampling rate               : 48.0 kHz
    Frame rate                  : 31.250 FPS (1536 spf)
    Bit depth                   : 16 bits
    Compression mode            : Lossy
    Delay relative to video     : -5 ms
    Stream size                 : 198 MiB (6%)
    Title                       : Stereo
    Language                    : Spanish
    Service kind                : Complete Main
    Default                     : Yes
    Forced                      : No
    Statistics Tags Issue       : mkvmerge v10.0.0 ('To Drown In You') 64bit 2017-07-18 02:33:58 / mkvmerge v10.0.0 ('To Drown In You') 64bit 2017-07-18 02:33:58 / UTC 2017-07-18T00:52:57Z
    FromStats_BitRate           : 256000
    FromStats_Duration          : 01:48:08.064000000
    FromStats_FrameCount        : 202752
    FromStats_StreamSize        : 207618048

    Audio #2
    ID                          : 3
    Format                      : AC-3
    Format/Info                 : Audio Coding 3
    Format settings, Endianness : Big
    Codec ID                    : A_AC3
    Duration                    : 1 h 48 min
    Bit rate mode               : Constant
    Bit rate                    : 384 kb/s
    Channel(s)                  : 2 channels
    Channel positions           : Front: L R
    Sampling rate               : 48.0 kHz
    Frame rate                  : 31.250 FPS (1536 spf)
    Bit depth                   : 16 bits
    Compression mode            : Lossy
    Delay relative to video     : -5 ms
    Stream size                 : 297 MiB (9%)
    Title                       : Stereo
    Language                    : French
    Service kind                : Complete Main
    Default                     : No
    Forced                      : No
    Statistics Tags Issue       : mkvmerge v10.0.0 ('To Drown In You') 64bit 2017-07-18 02:33:58 / mkvmerge v10.0.0 ('To Drown In You') 64bit 2017-07-18 02:33:58 / UTC 2017-07-18T00:52:57Z
    FromStats_BitRate           : 384000
    FromStats_Duration          : 01:48:07.072000000
    FromStats_FrameCount        : 202721
    FromStats_StreamSize        : 311379456

    Text #1
    ID                          : 4
    Format                      : PGS
    Muxing mode                 : zlib
    Codec ID                    : S_HDMV/PGS
    Codec ID/Info               : Picture based subtitle format used on BDs/HD-DVDs
    Language                    : Spanish
    Default                     : No
    Forced                      : No
    Statistics Tags Issue       : mkvmerge v10.0.0 ('To Drown In You') 64bit 2017-07-18 02:33:58 / mkvmerge v10.0.0 ('To Drown In You') 64bit 2017-07-18 02:33:58 / UTC 2017-07-18T00:52:57Z
    FromStats_BitRate           : 5383
    FromStats_Duration          : 01:44:52.583000000
    FromStats_FrameCount        : 2371
    FromStats_StreamSize        : 4234162

    Text #2
    ID                          : 5
    Format                      : PGS
    Muxing mode                 : zlib
    Codec ID                    : S_HDMV/PGS
    Codec ID/Info               : Picture based subtitle format used on BDs/HD-DVDs
    Language                    : English
    Default                     : No
    Forced                      : No
    Statistics Tags Issue       : mkvmerge v10.0.0 ('To Drown In You') 64bit 2017-07-18 02:33:58 / mkvmerge v10.0.0 ('To Drown In You') 64bit 2017-07-18 02:33:58 / UTC 2017-07-18T00:52:57Z
    FromStats_BitRate           : 4392
    FromStats_Duration          : 01:43:36.458000000
    FromStats_FrameCount        : 1700
    FromStats_StreamSize        : 3412952

    Text #3
    ID                          : 6
    Format                      : UTF-8
    Codec ID                    : S_TEXT/UTF8
    Codec ID/Info               : UTF-8 Plain Text
    Language                    : Spanish
    Default                     : Yes
    Forced                      : No
    Statistics Tags Issue       : mkvmerge v10.0.0 ('To Drown In You') 64bit 2017-07-18 02:33:58 / mkvmerge v10.0.0 ('To Drown In You') 64bit 2017-07-18 02:33:58 / UTC 2017-07-18T00:52:57Z
    FromStats_BitRate           : 51
    FromStats_Duration          : 01:44:52.567000000
    FromStats_FrameCount        : 1218
    FromStats_StreamSize        : 40795

    Text #4
    ID                          : 7
    Format                      : UTF-8
    Codec ID                    : S_TEXT/UTF8
    Codec ID/Info               : UTF-8 Plain Text
    Language                    : English
    Default                     : No
    Forced                      : No
    Statistics Tags Issue       : mkvmerge v10.0.0 ('To Drown In You') 64bit 2017-07-18 02:33:58 / mkvmerge v10.0.0 ('To Drown In You') 64bit 2017-07-18 02:33:58 / UTC 2017-07-18T00:52:57Z
    FromStats_BitRate           : 39
    FromStats_Duration          : 01:43:36.458000000
    FromStats_FrameCount        : 851
    FromStats_StreamSize        : 30930

    Menu
    00:00:00.000                : :Chapter 1
    00:10:49.125                : :Chapter 2
    00:19:08.958                : :Chapter 3
    00:27:27.875                : :Chapter 4
    00:32:41.833                : :Chapter 5
    00:40:16.667                : :Chapter 6
    00:50:29.125                : :Chapter 7
    00:58:53.167                : :Chapter 8
    01:06:52.292                : :Chapter 9
    01:17:36.958                : :Chapter 10
    01:29:44.167                : :Chapter 11
    01:39:55.667                : :Chapter 12

  • Peso: 3.14 GB

Sinopsis

Laura y Kate Barlow son dos hermanas que poseen la habilidad de comunicarse con los fantasmas. Pero, mientras están actuando en el París de los años 30, se cruzan con un productor de cine francés que complica sus vidas.

Dirigida por Rebecca Zlotowski (Grand Central, Belle épine), el guion lo co-escribe junto a Robin Campillo (Les Revenants, Foxfire). Planetarium es un drama protagonizado por Natalie Portman (Thor: El mundo oscuro, Cisne Negro), Lily-Rose Melody Depp (Tusk, Yoga Hosers) y Louis Garrel (Saint Laurent, Un castillo en Italia).

 

Español Latino AC3 2.0 – Frances AC3 2.0

Ficha técnica

Imágenes, Capturas de la película

Video trailer de la película

Enlaces de descarga

Descargar Planetarium (2016) 1080p Latino
Descargar

dpeliculas

Aportes de DPeliculasHDmega la pass es:dpeliculashdmega.org Aportes de CinemaniaHD la pass es:cinemaniahdd.com
Guardado en : Drama , Fantasía , Misterio

PelícuDelas relacionadas

  • Born in China (2016) 1080p Latino

    2017
    Born in China (2016) 1080p Latino

    0.0 1h 19m 2017

    Documental de la filial de Walt Disney Disneynature que recoge la vida salvaje y la belleza natural de...

    Director: Lu Chuan

    Género: Documental

    Actores: Zhou Xun

  • Gold la gran estafa (2016) 1080p Latino

    2016
    Gold la gran estafa (2016) 1080p Latino

    0.0 2h 1m 2016

    Descarga Gold hd latino, también conocida La gran estafa 1080p latino Kenny Wells es un fracasado hombre...

    Director: Stephen Gaghan

    Género: Aventura

    Actores: Yothin Mapobphun

  • Juego de Tronos (2016) Temporada 6 Full Latino

    2011/03/17
    Juego de Tronos (2016) Temporada 6 Full Latino

    0.0 60 Min. 2011/03/17

    Descargar gratis Juego de Tronos (2016) Temporada 6 Full Latino Sinopsis capitulo 1: Jon Nieve está...

    Director: David Benioff

    Género: Drama

    Actores: Sophie Turner

Comentarios 2
  • Osvaldo - 23 Julio, 2017

    Como le ago para reproducirlas

    • dpelis

      Administrador
      - 23 Julio, 2017

      con vlc o media player classic