Personal Shopper (2016) 1080p Latino

1.399 vistas
1 estrella2 estrellas3 estrellas4 estrellas5 estrellas (Ninguna valoración todavía)
Cargando…

Información de Personal Shopper (2016) 1080p Latino

Datos de la película

  • Calidad: 1080p
  • Audio: Español Latino AC3 5.1 BLURAY - Ingles AC3 5.1 BLURAY
  • Subtitulos: Español Latino SRT - Ingles SRT
  • Resolución: 1920x808p
  • Formato: MKV
  • Codec: H.264
  • Encoder: Dpelis
  • Mediainfo: Ver Ver
  • Personal.shopper.2016.1080p.Latino.mkv
    Format                      : Matroska
    Format version              : Version 4 / Version 2
    File size                   : 3.12 GiB
    Duration                    : 1 h 45 min
    Overall bit rate            : 4 240 kb/s
    Movie name                  : DPeliculasHDMega.ORG
    Encoded date                : UTC 2017-08-04 21:06:45 / UTC 2017-08-04T16:27:38Z
    Writing application         : mkvmerge v10.0.0 ('To Drown In You') 64bit
    Writing library             : libebml v1.3.4 + libmatroska v1.4.5 / Lavf57.7.2

    Video
    ID                          : 1
    Format                      : AVC
    Format/Info                 : Advanced Video Codec
    Format profile              : [email protected]
    Format settings, CABAC      : Yes
    Format settings, ReFrames   : 4 frames
    Codec ID                    : V_MPEG4/ISO/AVC
    Duration                    : 1 h 45 min
    Bit rate                    : 3 324 kb/s
    Nominal bit rate            : 3 500 kb/s
    Width                       : 1 920 pixels
    Height                      : 808 pixels
    Display aspect ratio        : 2.40:1
    Frame rate mode             : Constant
    Frame rate                  : 23.976 (24000/1001) FPS
    Color space                 : YUV
    Chroma subsampling          : 4:2:0
    Bit depth                   : 8 bits
    Scan type                   : Progressive
    Bits/(Pixel*Frame)          : 0.089
    Stream size                 : 2.44 GiB (78%)
    Writing library             : x264 core 148 r2708 86b7198
    Encoding settings           : cabac=1 / ref=3 / deblock=1:0:0 / analyse=0x3:0x113 / me=hex / subme=7 / psy=1 / psy_rd=1.00:0.00 / mixed_ref=1 / me_range=16 / chroma_me=1 / trellis=1 / 8x8dct=1 / cqm=0 / deadzone=21,11 / fast_pskip=1 / chroma_qp_offset=-2 / threads=12 / lookahead_threads=2 / sliced_threads=0 / nr=0 / decimate=1 / interlaced=0 / bluray_compat=0 / constrained_intra=0 / bframes=3 / b_pyramid=2 / b_adapt=1 / b_bias=0 / direct=1 / weightb=1 / open_gop=0 / weightp=2 / keyint=240 / keyint_min=24 / scenecut=40 / intra_refresh=0 / rc_lookahead=40 / rc=abr / mbtree=1 / bitrate=3500 / ratetol=1.0 / qcomp=0.60 / qpmin=0 / qpmax=69 / qpstep=4 / vbv_maxrate=62500 / vbv_bufsize=78125 / nal_hrd=none / filler=0 / ip_ratio=1.40 / aq=1:1.00
    Default                     : Yes
    Forced                      : No
    Color range                 : Limited
    Color primaries             : BT.709
    Transfer characteristics    : BT.709
    Matrix coefficients         : BT.709
    Statistics Tags Issue       : mkvmerge v10.0.0 ('To Drown In You') 64bit 2017-08-04 21:06:45 / mkvmerge v10.0.0 ('To Drown In You') 64bit 2017-08-04 21:06:45 / UTC 2017-08-04T16:27:38Z
    FromStats_BitRate           : 3406449
    FromStats_Duration          : 01:45:14.100000000
    FromStats_FrameCount        : 151387
    FromStats_StreamSize        : 2688582990

    Audio #1
    ID                          : 2
    Format                      : AC-3
    Format/Info                 : Audio Coding 3
    Format settings, Endianness : Big
    Codec ID                    : A_AC3
    Duration                    : 1 h 45 min
    Bit rate mode               : Constant
    Bit rate                    : 448 kb/s
    Channel(s)                  : 6 channels
    Channel positions           : Front: L C R, Side: L R, LFE
    Sampling rate               : 48.0 kHz
    Frame rate                  : 31.250 FPS (1536 spf)
    Bit depth                   : 16 bits
    Compression mode            : Lossy
    Delay relative to video     : -5 ms
    Stream size                 : 337 MiB (11%)
    Language                    : Spanish
    Service kind                : Complete Main
    Default                     : Yes
    Forced                      : No
    Statistics Tags Issue       : mkvmerge v10.0.0 ('To Drown In You') 64bit 2017-08-04 21:06:45 / mkvmerge v10.0.0 ('To Drown In You') 64bit 2017-08-04 21:06:45 / UTC 2017-08-04T16:27:38Z
    FromStats_BitRate           : 448000
    FromStats_Duration          : 01:45:11.584000000
    FromStats_FrameCount        : 197237
    FromStats_StreamSize        : 353448704

    Audio #2
    ID                          : 3
    Format                      : AC-3
    Format/Info                 : Audio Coding 3
    Format settings, Endianness : Big
    Codec ID                    : A_AC3
    Duration                    : 1 h 45 min
    Bit rate mode               : Constant
    Bit rate                    : 384 kb/s
    Channel(s)                  : 6 channels
    Channel positions           : Front: L C R, Side: L R, LFE
    Sampling rate               : 48.0 kHz
    Frame rate                  : 31.250 FPS (1536 spf)
    Bit depth                   : 16 bits
    Compression mode            : Lossy
    Delay relative to video     : -5 ms
    Stream size                 : 289 MiB (9%)
    Title                       : Surround
    Language                    : English
    Service kind                : Complete Main
    Default                     : No
    Forced                      : No
    Statistics Tags Issue       : mkvmerge v10.0.0 ('To Drown In You') 64bit 2017-08-04 21:06:45 / mkvmerge v10.0.0 ('To Drown In You') 64bit 2017-08-04 21:06:45 / UTC 2017-08-04T16:27:38Z
    FromStats_BitRate           : 384000
    FromStats_Duration          : 01:45:14.080000000
    FromStats_FrameCount        : 197315
    FromStats_StreamSize        : 303075840

    Text #1
    ID                          : 4
    Format                      : UTF-8
    Codec ID                    : S_TEXT/UTF8
    Codec ID/Info               : UTF-8 Plain Text
    Language                    : Spanish
    Default                     : Yes
    Forced                      : No
    Statistics Tags Issue       : mkvmerge v10.0.0 ('To Drown In You') 64bit 2017-08-04 21:06:45 / mkvmerge v10.0.0 ('To Drown In You') 64bit 2017-08-04 21:06:45 / UTC 2017-08-04T16:27:38Z
    FromStats_BitRate           : 36
    FromStats_Duration          : 01:39:12.563000000
    FromStats_FrameCount        : 855
    FromStats_StreamSize        : 27356

    Text #2
    ID                          : 5
    Format                      : UTF-8
    Codec ID                    : S_TEXT/UTF8
    Codec ID/Info               : UTF-8 Plain Text
    Language                    : English
    Default                     : No
    Forced                      : No
    Statistics Tags Issue       : mkvmerge v10.0.0 ('To Drown In You') 64bit 2017-08-04 21:06:45 / mkvmerge v10.0.0 ('To Drown In You') 64bit 2017-08-04 21:06:45 / UTC 2017-08-04T16:27:38Z
    FromStats_BitRate           : 36
    FromStats_Duration          : 01:39:11.112000000
    FromStats_FrameCount        : 861
    FromStats_StreamSize        : 27105

    Menu
    00:00:00.000                : :00:00:00.000
    00:10:42.475                : :00:10:42.267
    00:20:13.045                : :00:20:12.878
    00:30:40.881                : :00:30:40.839
    00:42:34.302                : :00:42:34.260
    00:52:55.255                : :00:52:55.089
    01:01:12.169                : :01:01:12.043
    01:11:28.284                : :01:11:27.867
    01:16:11.317                : :01:16:11.066
    01:24:15.717                : :01:24:15.717
    01:34:06.141                : :01:34:05.765
    01:40:50.294                : :01:40:49.794

  • Peso: 3.12 GB

Sinopsis

Descargar Personal Shopper hd latino, una pelicula protagonizada por Kristen Stewart,Maureen, una joven estadounidense en París, se hace cargo del guardarropa de una celebridad. Aunque no le gusta su trabajo, es lo único que encontró para pagar su estancia mientras espera una manifestación del espíritu de Lewis, su hermano gemelo desaparecido hace poco. Maureen comienza entonces a recibir en su móvil extraños mensajes anónimos.

Ficha técnica

Imágenes, Capturas de la película

Video trailer de la película

Enlaces de descarga

Descargar Personal Shopper (2016) 1080p Latino
Descargar

dpeliculas

Aportes de DPeliculasHDmega la pass es:dpeliculashdmega.org Aportes de CinemaniaHD la pass es:cinemaniahdd.com
Guardado en : Drama , Misterio , Suspense

PelícuDelas relacionadas

  • Born in China (2016) 1080p Latino

    2017
    Born in China (2016) 1080p Latino

    0.0 1h 19m 2017

    Documental de la filial de Walt Disney Disneynature que recoge la vida salvaje y la belleza natural de...

    Director: Lu Chuan

    Género: Documental

    Actores: Zhou Xun

  • Collide (2016) 1080p Latino

    2016
    Collide (2016) 1080p Latino

    0.0 1h 39m 2016

    Descargar Persecucion al limite hd latino. Tambien conocida como Collide 1080p Cuando uno de los atracos...

    Director: Eran Creevy

    Género: Acción

    Actores: Nicholas Hoult

  • Gold la gran estafa (2016) 1080p Latino

    2016
    Gold la gran estafa (2016) 1080p Latino

    0.0 2h 1m 2016

    Descarga Gold hd latino, también conocida La gran estafa 1080p latino Kenny Wells es un fracasado hombre...

    Director: Stephen Gaghan

    Género: Aventura

    Actores: Yothin Mapobphun

Comentarios 0