Pelé, el nacimiento de una leyenda (2016) 1080p Latino

716 vistas
1 estrella2 estrellas3 estrellas4 estrellas5 estrellas (Ninguna valoración todavía)
Cargando…

Información de Pelé, el nacimiento de una leyenda (2016) 1080p Latino

Datos de la película

  • Calidad: 1080p
  • Audio: Español Latino AC3 5.1 BLURAY - Ingles AC3 5.1 BLURAY
  • Subtitulos: Español Latino PGS
  • Resolución: 1920x1080p
  • Formato: MKV
  • Codec: H.264
  • Encoder: Dpelis1
  • Mediainfo: Ver Ver
  • Video
    ID                                       : 1
    Format                                   : AVC
    Format/Info                              : Advanced Video Codec
    Format profile                           : [email protected]
    Format settings, CABAC                   : Yes
    Format settings, RefFrames               : 4 frames
    Codec ID                                 : V_MPEG4/ISO/AVC
    Duration                                 : 1 h 46 min
    Bit rate                                 : 3 500 kb/s
    Width                                    : 1 920 pixels
    Height                                   : 1 080 pixels
    Display aspect ratio                     : 16:9
    Frame rate mode                          : Constant
    Frame rate                               : 23.976 (24000/1001) FPS
    Color space                              : YUV
    Chroma subsampling                       : 4:2:0
    Bit depth                                : 8 bits
    Scan type                                : Progressive
    Bits/(Pixel*Frame)                       : 0.070
    Stream size                              : 2.55 GiB (80%)
    Writing library                          : x264 core 148 r2708 86b7198
    Encoding settings                        : cabac=1 / ref=3 / deblock=1:0:0 / analyse=0x3:0x113 / me=hex / subme=7 / psy=1 / psy_rd=1.00:0.00 / mixed_ref=1 / me_range=16 / chroma_me=1 / trellis=1 / 8x8dct=1 / cqm=0 / deadzone=21,11 / fast_pskip=1 / chroma_qp_offset=-2 / threads=12 / lookahead_threads=2 / sliced_threads=0 / nr=0 / decimate=1 / interlaced=0 / bluray_compat=0 / constrained_intra=0 / bframes=3 / b_pyramid=2 / b_adapt=1 / b_bias=0 / direct=1 / weightb=1 / open_gop=0 / weightp=2 / keyint=240 / keyint_min=24 / scenecut=40 / intra_refresh=0 / rc_lookahead=40 / rc=abr / mbtree=1 / bitrate=3500 / ratetol=1.0 / qcomp=0.60 / qpmin=0 / qpmax=69 / qpstep=4 / vbv_maxrate=62500 / vbv_bufsize=78125 / nal_hrd=none / filler=0 / ip_ratio=1.40 / aq=1:1.00
    Default                                  : Yes
    Forced                                   : No
    Color range                              : Limited
    Color primaries                          : BT.709
    Transfer characteristics                 : BT.709
    Matrix coefficients                      : BT.709

    Audio #1
    ID                                       : 2
    Format                                   : AC-3
    Format/Info                              : Audio Coding 3
    Format settings, Endianness              : Big
    Codec ID                                 : A_AC3
    Duration                                 : 1 h 46 min
    Bit rate mode                            : Constant
    Bit rate                                 : 384 kb/s
    Channel(s)                               : 6 channels
    Channel positions                        : Front: L C R, Side: L R, LFE
    Sampling rate                            : 48.0 kHz
    Frame rate                               : 31.250 FPS (1536 SPF)
    Bit depth                                : 16 bits
    Compression mode                         : Lossy
    Delay relative to video                  : 91 ms
    Stream size                              : 294 MiB (9%)
    Title                                    : Surround
    Language                                 : Spanish
    Service kind                             : Complete Main
    Default                                  : Yes
    Forced                                   : No

    Audio #2
    ID                                       : 3
    Format                                   : AC-3
    Format/Info                              : Audio Coding 3
    Format settings, Endianness              : Big
    Codec ID                                 : A_AC3
    Duration                                 : 1 h 46 min
    Bit rate mode                            : Constant
    Bit rate                                 : 384 kb/s
    Channel(s)                               : 6 channels
    Channel positions                        : Front: L C R, Side: L R, LFE
    Sampling rate                            : 48.0 kHz
    Frame rate                               : 31.250 FPS (1536 SPF)
    Bit depth                                : 16 bits
    Compression mode                         : Lossy
    Delay relative to video                  : 91 ms
    Stream size                              : 294 MiB (9%)
    Title                                    : Surround
    Language                                 : English
    Service kind                             : Complete Main
    Default                                  : No
    Forced                                   : No

    Text
    ID                                       : 4
    Format                                   : PGS
    Codec ID                                 : S_HDMV/PGS
    Codec ID/Info                            : Picture based subtitle format used on BDs/HD-DVDs
    Language                                 : Spanish
    Default                                  : No
    Forced                                   : No

    Menu
    00:00:00.083                             : :Chapter 1
    00:08:31.594                             : :Chapter 2
    00:18:29.692                             : :Chapter 3
    00:28:09.771                             : :Chapter 4
    00:37:11.312                             : :Chapter 5
    00:46:31.872                             : :Chapter 6
    00:53:47.307                             : :Chapter 7
    01:04:18.438                             : :Chapter 8
    01:14:38.557                             : :Chapter 9
    01:21:23.462                             : :Chapter 10
    01:32:12.610                             : :Chapter 11
    01:40:11.589                             : :Chapter 12

  • Peso: 3,18 GB

Sinopsis

Descargar gratis Pelé, el nacimiento de una leyenda (2016) 1080p Latino. Biopic sobre el legendario futbolista brasileño Edson Arantes do Nascimnto, Pelé.

Ficha técnica

  • Titulo original: Pelé: Birth of a Legend
  • Fecha de lanzamiento: 06-05-2016 (United States of America)
  • Director: Jeff Zimbalist, Michael Zimbalist
  • Género: Drama
  • Puntuación: 0.0 0 votos
  • Duración:
    1h 47m

Imágenes, Capturas de la película

Video trailer de la película

Enlaces de descarga

Descargar Pelé, el nacimiento de una leyenda (2016) 1080p Latino
Descargar

dpeliculas

Aportes de DPeliculasHDmega la pass es:dpeliculashdmega.org Aportes de CinemaniaHD la pass es:cinemaniahdd.com
Guardado en : Drama

PelícuDelas relacionadas

Comentarios 4
  • luis - 04 septiembre, 2017

    pero siempre que subias las peliculas de portada negras pasado una semana salian las de full1080 .

    • dpelis

      Administrador
      - 04 septiembre, 2017

      pero peliculas estrenos, y que que sean esperadas. como momia. villano favorio, transformes

  • seba - 02 septiembre, 2017

    saldra en caratula gris amigos ????????????

    • dpelis

      Administrador
      - 03 septiembre, 2017

      no estimado