Advertise here

Pearl Harbor (2001) Full 1080p Latino

868 vistas
1 estrella2 estrellas3 estrellas4 estrellas5 estrellas (1 votos, promedio: 5,00 de 5)
Cargando…

Información de Pearl Harbor (2001) Full 1080p Latino

Datos de la película

  • Calidad: Full 1080p
  • Audio: Se especifica abajo de la Sinopsis
  • Subtitulos: Español Latino SRT
  • Resolución: 1920X1080p
  • Formato: MKV
  • Codec: H.264
  • Encoder: Dpelis
  • Mediainfo: Clic para Mostrar Datos Ver
  • Format                                   : Matroska
    Format version                           : Version 4 / Version 2
    File size                                : 16.4 GiB
    Duration                                 : 3 h 3 min
    Overall bit rate                         : 12.8 Mb/s
    Movie name                               : dpeliculashdmega.org
    Encoded date                             : UTC 2017-11-09 05:09:41 / UTC 2017-11-08T10:01:48Z
    Writing application                      : mkvmerge v15.0.0 ('Duel with the Devil') 64-bit
    Writing library                          : libebml v1.3.5 + libmatroska v1.4.5 / Lavf57.7.2

    Video
    ID                                       : 1
    Format                                   : AVC
    Format/Info                              : Advanced Video Codec
    Format profile                           : [email protected]
    Format settings                          : CABAC / 4 Ref Frames
    Format settings, CABAC                   : Yes
    Format settings, RefFrames               : 4 frames
    Codec ID                                 : V_MPEG4/ISO/AVC
    Duration                                 : 3 h 3 min
    Bit rate                                 : 10.8 Mb/s
    Width                                    : 1 920 pixels
    Height                                   : 1 080 pixels
    Display aspect ratio                     : 16:9
    Frame rate mode                          : Constant
    Frame rate                               : 23.976 (24000/1001) FPS
    Color space                              : YUV
    Chroma subsampling                       : 4:2:0
    Bit depth                                : 8 bits
    Scan type                                : Progressive
    Bits/(Pixel*Frame)                       : 0.217
    Stream size                              : 13.8 GiB (84%)
    Title                                    : Pearl Harbor (2001) Full 1080p Latino
    Writing library                          : x264 core 148 r2708 86b7198
    Encoding settings                        : cabac=1 / ref=4 / deblock=1:0:0 / analyse=0x3:0x133 / me=esa / subme=10 / psy=1 / psy_rd=1.00:0.00 / mixed_ref=1 / me_range=24 / chroma_me=1 / trellis=2 / 8x8dct=1 / cqm=0 / deadzone=21,11 / fast_pskip=1 / chroma_qp_offset=-2 / threads=34 / lookahead_threads=5 / sliced_threads=0 / nr=0 / decimate=1 / interlaced=0 / bluray_compat=0 / constrained_intra=0 / bframes=8 / b_pyramid=2 / b_adapt=2 / b_bias=0 / direct=3 / weightb=1 / open_gop=0 / weightp=2 / keyint=240 / keyint_min=24 / scenecut=40 / intra_refresh=0 / rc_lookahead=60 / rc=crf / mbtree=1 / crf=20.0 / qcomp=0.60 / qpmin=0 / qpmax=69 / qpstep=4 / vbv_maxrate=62500 / vbv_bufsize=78125 / crf_max=0.0 / nal_hrd=none / filler=0 / ip_ratio=1.40 / aq=1:1.00
    Language                                 : English
    Default                                  : Yes
    Forced                                   : No
    Color range                              : Limited
    Color primaries                          : BT.709
    Transfer characteristics                 : BT.709
    Matrix coefficients                      : BT.709
    Statistics Tags Issue                    : mkvmerge v15.0.0 ('Duel with the Devil') 64-bit 2017-11-09 05:09:41 / mkvmerge v15.0.0 ('Duel with the Devil') 64-bit 2017-11-09 05:09:41 / UTC 2017-11-08T10:01:48Z
    FromStats_BitRate                        : 11044591
    FromStats_Duration                       : 03:03:05.058000000
    FromStats_FrameCount                     : 263378
    FromStats_StreamSize                     : 15165684981

    Audio #1
    ID                                       : 2
    Format                                   : AC-3
    Format/Info                              : Audio Coding 3
    Format settings, Endianness              : Big
    Codec ID                                 : A_AC3
    Duration                                 : 3 h 3 min
    Bit rate mode                            : Constant
    Bit rate                                 : 256 kb/s
    Channel(s)                               : 2 channels
    Channel positions                        : Front: L R
    Sampling rate                            : 48.0 kHz
    Frame rate                               : 31.250 FPS (1536 SPF)
    Bit depth                                : 16 bits
    Compression mode                         : Lossy
    Delay relative to video                  : 24 ms
    Stream size                              : 336 MiB (2%)
    Title                                    : Latino-AC3
    Language                                 : Spanish
    Service kind                             : Complete Main
    Default                                  : Yes
    Forced                                   : No
    Statistics Tags Issue                    : mkvmerge v15.0.0 ('Duel with the Devil') 64-bit 2017-11-09 05:09:41 / mkvmerge v15.0.0 ('Duel with the Devil') 64-bit 2017-11-09 05:09:41 / UTC 2017-11-08T10:01:48Z
    FromStats_BitRate                        : 256000
    FromStats_Duration                       : 03:03:04.800000000
    FromStats_FrameCount                     : 343275
    FromStats_StreamSize                     : 351513600

    Audio #2
    ID                                       : 3
    Format                                   : DTS
    Format/Info                              : Digital Theater Systems
    Mode                                     : 16
    Format settings, Endianness              : Big
    Codec ID                                 : A_DTS
    Duration                                 : 3 h 3 min
    Bit rate mode                            : Constant
    Bit rate                                 : 1 509 kb/s
    Channel(s)                               : 6 channels
    Channel positions                        : Front: L C R, Side: L R, LFE
    Sampling rate                            : 48.0 kHz
    Frame rate                               : 93.750 FPS (512 SPF)
    Bit depth                                : 24 bits
    Compression mode                         : Lossy
    Stream size                              : 1.93 GiB (12%)
    Title                                    : Ingles-DTS
    Language                                 : English
    Default                                  : No
    Forced                                   : No
    Statistics Tags Issue                    : mkvmerge v15.0.0 ('Duel with the Devil') 64-bit 2017-11-09 05:09:41 / mkvmerge v15.0.0 ('Duel with the Devil') 64-bit 2017-11-09 05:09:41 / UTC 2017-11-08T10:01:48Z
    FromStats_BitRate                        : 1509000
    FromStats_Duration                       : 03:03:15.008000000
    FromStats_FrameCount                     : 1030782
    FromStats_StreamSize                     : 2073933384

    Text #1
    ID                                       : 4
    Format                                   : UTF-8
    Codec ID                                 : S_TEXT/UTF8
    Codec ID/Info                            : UTF-8 Plain Text
    Title                                    : SRT-Forzados
    Language                                 : Spanish
    Default                                  : Yes
    Forced                                   : No
    Statistics Tags Issue                    : mkvmerge v15.0.0 ('Duel with the Devil') 64-bit 2017-11-09 05:09:41 / mkvmerge v15.0.0 ('Duel with the Devil') 64-bit 2017-11-09 05:09:41 / UTC 2017-11-08T10:01:48Z
    FromStats_BitRate                        : 2
    FromStats_Duration                       : 01:30:53.592000000
    FromStats_FrameCount                     : 43
    FromStats_StreamSize                     : 1938

    Text #2
    ID                                       : 5
    Format                                   : UTF-8
    Codec ID                                 : S_TEXT/UTF8
    Codec ID/Info                            : UTF-8 Plain Text
    Title                                    : SRT-Completos
    Language                                 : Spanish
    Default                                  : No
    Forced                                   : No
    Statistics Tags Issue                    : mkvmerge v15.0.0 ('Duel with the Devil') 64-bit 2017-11-09 05:09:41 / mkvmerge v15.0.0 ('Duel with the Devil') 64-bit 2017-11-09 05:09:41 / UTC 2017-11-08T10:01:48Z
    FromStats_BitRate                        : 47
    FromStats_Duration                       : 02:50:59.137000000
    FromStats_FrameCount                     : 1989
    FromStats_StreamSize                     : 61011

    Menu
    00:00:00.167                             : :Tennessee, 1923
    00:04:42.073                             : :The European War
    00:04:59.132                             : :Playing Chicken
    00:08:30.802                             : :Looking for Trouble
    00:10:50.942                             : :Medical Examination
    00:16:49.717                             : :A Nose for Champagne
    00:20:08.165                             : :Pickup Lines
    00:23:23.193                             : :Saying Goodbye
    00:31:04.654                             : :Flying Towards War
    00:34:34.447                             : :Messages
    00:40:33.932                             : :The Battle of Britain
    00:43:43.329                             : :A Fight for Respect
    00:47:21.839                             : :Rememberance
    00:52:07.916                             : :Time to Move On
    00:58:47.315                             : :Confusion
    01:01:53.460                             : :Pearl Harbor at Sunset
    01:06:06.296                             : :Spine-Tingling Feeling
    01:12:15.414                             : :"I'm Alive"
    01:16:36.258                             : :Fight at the Hula House
    01:20:39.668                             : :December 7Th
    01:25:21.867                             : :Hostility Imminent
    01:27:48.096                             : :First Strike
    01:31:54.968                             : :Airfield Attack
    01:35:53.289                             : :A Call to Arms
    01:40:55.466                             : :Trapped
    01:44:36.604                             : :Hospital Chaos
    01:46:41.020                             : :Takeoff
    01:52:22.277                             : :Airborne
    01:56:50.253                             : :Shooting Back
    01:59:33.291                             : :Aftermath
    02:04:33.383                             : :Declaration of War
    02:08:47.386                             : :Retaliation
    02:12:28.107                             : :Flying Out
    02:18:44.233                             : :Mission Briefing
    02:23:01.990                             : :Lightening the Load
    02:26:41.084                             : :Tip of the Sword
    02:30:34.275                             : :Launch Now!
    02:35:56.973                             : :The Enemy's Backyard
    02:40:09.517                             : :Empty Tanks
    02:43:28.382                             : :Pinned Down
    02:45:21.120                             : :Sacrifice
    02:48:59.212                             : :Home
    02:51:06.798                             : :Danny
    02:52:34.803                             : :End Credits

  • Peso: 16.4 GiB

Sinopsis

Rafe (Ben Affleck) y Danny (Josh Harnett) crecieron juntos en una zona rural estadounidense y su amistad se ha prolongado a lo largo de los años hasta las filas de la Fuerza aérea, donde los dos son pilotos de guerra. Rafe encontró en Evelyn (Kate Beckinsale), una valiente enfermera, al amor de su vida, pero pronto es llamado a servir en la Fuerza aérea británica (RAF) para combatir a los Nazis como representante del ejército norteamericano. Mientras tanto, Danny y Evelyn son enviados a la base aérea de Pearl Harbor en Hawai. Una vez allí, ambos se enamoran mientras Rafe es derribado en combate. Para sorpresa de ambos, Rafe sobrevive y regresa a Pearl Harbor pero todo se complica cuando se produce un mortal bombardeo por parte del ejercito Japonés.

 

Audio: Latino 2.0 AC3 Web – Ingles 5.1 DTS BluRay

Créditos Audio Latino IACC

 

Ficha técnica

Video trailer de la película

Enlaces de descarga

Descargar Pearl Harbor (2001) Full 1080p Latino
Descargar

dpeliculas

Aportes de DPeliculasHDmega la pass es:dpeliculashdmega.org Aportes de CinemaniaHD la pass es:cinemaniahdd.com

Películas relacionadas

  • La autopsia de Jane Doe (2016) Full 1080p Latino

    2016
    La autopsia de Jane Doe (2016) Full 1080p Latino

    0.0 1h 39m 2016

    En una pequeño pueblo de Virginia aparece el cuerpo desnudo y semienterrado de una hermosa joven, misteriosa...

    Director: Sheila McNaught

    Género: FULL 1080p Pesadas

    Actores: Parker Sawyers

  • Guardianes de altamar (2006) Full 1080p Latino

    2006
    Guardianes de altamar (2006) Full 1080p Latino

    0.0 2h 16m 2006

    Después de perder a su equipo en un trágico accidente, Ben Randall, un legendario nadador de rescate,...

    Director: Andrew Davis

    Género: Acción

    Actores: Travis Willingham

  • Lo que de verdad importa (2017) Full 1080p Latino

    2017
    Lo que de verdad importa (2017) Full 1080p Latino

    0.0 1 h 48 min 2017

    Alex vive en Inglaterrra, trabaja arreglando aparatos eléctricos en una empresa que no va bien económicamente,...

    Director: Paco Arango

    Género: Castellano

    Actores: Suresh John

  • Open Water 3 (2017) 1080p Latino

    2017
    Open Water 3 (2017) 1080p Latino

    0.0 1 h 20 min 2017

    Tres amigos viajan a Australia con la intención de grabar un vídeo buceando entre tiburones, que les...

    Director: Gerald Rascionato

    Género: Drama

    Actores: Tara Wraith

Comentarios 3
  • leonidas2016 - 14 noviembre, 2017

    Buenisima esta pelicula, gracias por el aporte

  • Daikokusei - 11 noviembre, 2017

    Gracias por subir esta pelicula, se que no es de lo mejor del cine bélico pero a mi me gusta mucho y quería tambien preguntar si esta completamente en latino o tiene partes en ingles.

    • Dpelis2 pelis2

      Autor
      - 11 noviembre, 2017

      Audio completamente en latino…