Advertise here

Patti Cake$ (2017) WEB-DL 1080p Latino

485 vistas
1 estrella2 estrellas3 estrellas4 estrellas5 estrellas (Ninguna valoración todavía)
Cargando…

Información de Patti Cake$ (2017) WEB-DL 1080p Latino

Datos de la película

  • Calidad: WEBDL
  • Audio: Español Latino AC3 2.0 iTunes - Ingles AC3 5.1 iTunes
  • Subtitulos: Español Latino SRT
  • Resolución: 1920X1038
  • Formato: MKV
  • Codec: H.264
  • Encoder: Dpelis
  • Mediainfo: Clic para Mostrar Datos Ver
  • Format                                   : Matroska
    Format version                           : Version 4 / Version 2
    File size                                : 4.44 GiB
    Duration                                 : 1 h 49 min
    Overall bit rate                         : 5 807 kb/s
    Movie name                               : dpeliculashdmega.org
    Encoded date                             : UTC 2017-11-07 07:33:31
    Writing application                      : mkvmerge v15.0.0 ('Duel with the Devil') 64-bit
    Writing library                          : libebml v1.3.5 + libmatroska v1.4.5

    Video
    ID                                       : 1
    Format                                   : AVC
    Format/Info                              : Advanced Video Codec
    Format profile                           : [email protected]
    Format settings                          : CABAC / 4 Ref Frames
    Format settings, CABAC                   : Yes
    Format settings, RefFrames               : 4 frames
    Codec ID                                 : V_MPEG4/ISO/AVC
    Duration                                 : 1 h 49 min
    Bit rate                                 : 5 231 kb/s
    Width                                    : 1 920 pixels
    Height                                   : 1 038 pixels
    Display aspect ratio                     : 1.85:1
    Frame rate mode                          : Constant
    Frame rate                               : 23.976 FPS
    Color space                              : YUV
    Chroma subsampling                       : 4:2:0
    Bit depth                                : 8 bits
    Scan type                                : Progressive
    Bits/(Pixel*Frame)                       : 0.109
    Stream size                              : 4.00 GiB (90%)
    Title                                    : Patti Cake$ (2017) WEB-DL 1080p Latino
    Language                                 : English
    Default                                  : Yes
    Forced                                   : No
    Color range                              : Limited
    Color primaries                          : BT.709
    Transfer characteristics                 : BT.709
    Matrix coefficients                      : BT.709

    Audio #1
    ID                                       : 2
    Format                                   : AC-3
    Format/Info                              : Audio Coding 3
    Format settings, Endianness              : Big
    Codec ID                                 : A_AC3
    Duration                                 : 1 h 48 min
    Bit rate mode                            : Constant
    Bit rate                                 : 192 kb/s
    Channel(s)                               : 2 channels
    Channel positions                        : Front: L R
    Sampling rate                            : 48.0 kHz
    Frame rate                               : 31.250 FPS (1536 SPF)
    Bit depth                                : 16 bits
    Compression mode                         : Lossy
    Stream size                              : 150 MiB (3%)
    Title                                    : Latino-AC3
    Language                                 : Spanish
    Service kind                             : Complete Main
    Default                                  : Yes
    Forced                                   : No

    Audio #2
    ID                                       : 3
    Format                                   : AC-3
    Format/Info                              : Audio Coding 3
    Format settings, Endianness              : Big
    Codec ID                                 : A_AC3
    Duration                                 : 1 h 48 min
    Bit rate mode                            : Constant
    Bit rate                                 : 384 kb/s
    Channel(s)                               : 6 channels
    Channel positions                        : Front: L C R, Side: L R, LFE
    Sampling rate                            : 48.0 kHz
    Frame rate                               : 31.250 FPS (1536 SPF)
    Bit depth                                : 16 bits
    Compression mode                         : Lossy
    Stream size                              : 299 MiB (7%)
    Title                                    : Ingles-AC3
    Language                                 : English
    Service kind                             : Complete Main
    Default                                  : No
    Forced                                   : No

    Text #1
    ID                                       : 4
    Format                                   : UTF-8
    Codec ID                                 : S_TEXT/UTF8
    Codec ID/Info                            : UTF-8 Plain Text
    Duration                                 : 1 h 47 min
    Bit rate                                 : 30 b/s
    Count of elements                        : 515
    Stream size                              : 24.1 KiB (0%)
    Title                                    : Forzados
    Language                                 : Spanish
    Default                                  : Yes
    Forced                                   : No

    Text #2
    ID                                       : 5
    Format                                   : UTF-8
    Codec ID                                 : S_TEXT/UTF8
    Codec ID/Info                            : UTF-8 Plain Text
    Duration                                 : 1 h 47 min
    Bit rate                                 : 72 b/s
    Count of elements                        : 1576
    Stream size                              : 57.5 KiB (0%)
    Title                                    : Completos
    Language                                 : Spanish
    Default                                  : No
    Forced                                   : No

    Menu
    00:00:00.000                             : en:Chapter 01
    00:04:43.283                             : en:Chapter 02
    00:06:33.977                             : en:Chapter 03
    00:08:00.063                             : en:Chapter 04
    00:09:28.859                             : en:Chapter 05
    00:12:03.095                             : en:Chapter 06
    00:15:28.090                             : en:Chapter 07
    00:17:50.022                             : en:Chapter 08
    00:20:46.865                             : en:Chapter 09
    00:26:48.726                             : en:Chapter 10
    00:27:48.284                             : en:Chapter 11
    00:30:02.876                             : en:Chapter 12
    00:34:00.070                             : en:Chapter 13
    00:38:09.818                             : en:Chapter 14
    00:40:54.899                             : en:Chapter 15
    00:43:57.455                             : en:Chapter 16
    00:47:01.806                             : en:Chapter 17
    00:50:42.193                             : en:Chapter 18
    00:53:02.124                             : en:Chapter 19
    00:58:37.167                             : en:Chapter 20
    01:01:49.192                             : en:Chapter 21
    01:04:57.255                             : en:Chapter 22
    01:07:14.599                             : en:Chapter 23
    01:13:13.039                             : en:Chapter 24
    01:16:17.014                             : en:Chapter 25
    01:22:13.369                             : en:Chapter 26
    01:26:43.722                             : en:Chapter 27
    01:30:05.298                             : en:Chapter 28
    01:32:45.416                             : en:Chapter 29
    01:35:44.511                             : en:Chapter 30
    01:40:49.566                             : en:Chapter 31
    01:43:10.581                             : en:Chapter 32

  • Peso: 4.44 GiB

Sinopsis

Directamente de Jersey llega Patricia Dombrowski, alias Killa P, alias Patti Cake$, una aspirante a rapera abriéndose camino en un mundo de centros comerciales y clubes de striptease en búsqueda de un improbable triunfo.

Ficha técnica

  • Titulo original: Patti Cake$
  • Fecha de lanzamiento: 18-08-2017 (United States of America)
  • Director: Geremy Jasper
  • Género: Drama
  • Puntuación: 0.0 0 votos
  • Duración:
    1 h 49 min

Video trailer de la película

Enlaces de descarga

Descargar Patti Cake$ (2017) WEB-DL 1080p Latino
Descargar

dpeliculas

Aportes de DPeliculasHDmega la pass es:dpeliculashdmega.org Aportes de CinemaniaHD la pass es:cinemaniahdd.com
Guardado en : Drama

Películas relacionadas

  • Your name (2016) Full 1080p Latino

    2016
    Your name (2016) Full 1080p Latino

    5.0 1 h 46 min 2016

    La película nos presenta a dos jóvenes, Mitsuha y Taki. La primera es una estudiante de instituto que...

    Director: Makoto Shinkai

    Género: Animación

    Actores: Tani Kanon

  • Atrápame si puedes (2002) Full 1080p Latino

    2002
    Atrápame si puedes (2002) Full 1080p Latino

    0.0 2h 20m 2002

    Frank Abagnale Jr. trabajó como médico, abogado y copiloto de una de las grandes líneas aéreas, todo...

    Director: Steven Spielberg

    Género: Crimen

    Actores: William Lauzon

  • Mi Nueva Yo (2017) WEBDL 1080p Latino

    2017
    Mi Nueva Yo (2017) WEBDL 1080p Latino

    0.0 1 h 37 min 2017

    Una madre de dos hijos se acaba de separar y decide iniciar una nueva vida en Los Ángeles. Los acontecimientos...

    Director: Hallie Meyers-Shyer

    Género: Comedia

    Actores: Reid Scott

  • The Walking Dead (2017) Temporada 8 WEBDL 1080p Latino

    2017
    The Walking Dead (2017) Temporada 8 WEBDL 1080p Latino

    5.0 0h 42m 2017

    Rick, Maggie y Ezekiel reúnen a sus comunidades para derrotar a Negan y los salvadores. Gregory intenta...

    Director: Frank Darabont

    Género: Action & Adventure

    Actores: Norman Reedus

Comentarios 0