Advertise here

Pandemic (2016) 1080p Latino

2.222 vistas
1 estrella2 estrellas3 estrellas4 estrellas5 estrellas (Ninguna valoración todavía)
Cargando…

Información de Pandemic (2016) 1080p Latino

Datos de la película

  • Calidad: 1080p
  • Audio: Español Latino AC3 2.0 Capturado - Ingles AC3 5.1 BLURAY
  • Subtitulos: Español Latino SRT
  • Resolución: 1874x816
  • Formato: MKV
  • Codec: H.264
  • Encoder: Dpelis
  • Mediainfo: Clic para Mostrar Datos Ver
  • Pandemic (2016) 1080p Latino.mkv
    Format                      : Matroska
    Format version              : Version 4 / Version 2
    File size                   : 2.56 GiB
    Duration                    : 1 h 32 min
    Overall bit rate            : 3 979 kb/s
    Movie name                  : DPeliculasHDMega.ORG
    Encoded date                : UTC 2017-10-27 21:45:50 / UTC 2017-10-27T20:30:43Z
    Writing application         : mkvmerge v10.0.0 ('To Drown In You') 64bit
    Writing library             : libebml v1.3.4 + libmatroska v1.4.5 / Lavf57.7.2

    Video
    ID                          : 1
    Format                      : AVC
    Format/Info                 : Advanced Video Codec
    Format profile              : [email protected]
    Format settings, CABAC      : Yes
    Format settings, RefFrames  : 5 frames
    Codec ID                    : V_MPEG4/ISO/AVC
    Duration                    : 1 h 32 min
    Bit rate                    : 3 324 kb/s
    Nominal bit rate            : 3 500 kb/s
    Width                       : 1 874 pixels
    Height                      : 816 pixels
    Display aspect ratio        : 2.35:1
    Frame rate mode             : Constant
    Frame rate                  : 23.976 (24000/1001) FPS
    Color space                 : YUV
    Chroma subsampling          : 4:2:0
    Bit depth                   : 8 bits
    Scan type                   : Progressive
    Bits/(Pixel*Frame)          : 0.091
    Stream size                 : 2.14 GiB (84%)
    Writing library             : x264 core 148 r2708 86b7198
    Encoding settings           : cabac=1 / ref=5 / deblock=1:0:0 / analyse=0x3:0x113 / me=umh / subme=8 / psy=1 / psy_rd=1.00:0.00 / mixed_ref=1 / me_range=16 / chroma_me=1 / trellis=1 / 8x8dct=1 / cqm=0 / deadzone=21,11 / fast_pskip=1 / chroma_qp_offset=-2 / threads=25 / lookahead_threads=4 / sliced_threads=0 / nr=0 / decimate=1 / interlaced=0 / bluray_compat=0 / constrained_intra=0 / bframes=3 / b_pyramid=2 / b_adapt=2 / b_bias=0 / direct=3 / weightb=1 / open_gop=0 / weightp=2 / keyint=240 / keyint_min=24 / scenecut=40 / intra_refresh=0 / rc_lookahead=50 / rc=abr / mbtree=1 / bitrate=3500 / ratetol=1.0 / qcomp=0.60 / qpmin=0 / qpmax=69 / qpstep=4 / vbv_maxrate=62500 / vbv_bufsize=78125 / nal_hrd=none / filler=0 / ip_ratio=1.40 / aq=1:1.00
    Default                     : Yes
    Forced                      : No
    Color range                 : Limited
    Color primaries             : BT.709
    Transfer characteristics    : BT.709
    Matrix coefficients         : BT.709
    Statistics Tags Issue       : mkvmerge v10.0.0 ('To Drown In You') 64bit 2017-10-27 21:45:50 / mkvmerge v10.0.0 ('To Drown In You') 64bit 2017-10-27 21:45:50 / UTC 2017-10-27T20:30:43Z
    FromStats_BitRate           : 3402138
    FromStats_Duration          : 01:32:01.475000000
    FromStats_FrameCount        : 132383
    FromStats_StreamSize        : 2348102715

    Audio #1
    ID                          : 2
    Format                      : AC-3
    Format/Info                 : Audio Coding 3
    Format settings, Endianness : Big
    Codec ID                    : A_AC3
    Duration                    : 1 h 32 min
    Bit rate mode               : Constant
    Bit rate                    : 192 kb/s
    Channel(s)                  : 2 channels
    Channel positions           : Front: L R
    Sampling rate               : 48.0 kHz
    Frame rate                  : 31.250 FPS (1536 SPF)
    Bit depth                   : 16 bits
    Compression mode            : Lossy
    Delay relative to video     : 4 s 795 ms
    Stream size                 : 126 MiB (5%)
    Language                    : Spanish
    Service kind                : Complete Main
    Default                     : Yes
    Forced                      : No
    Statistics Tags Issue       : mkvmerge v10.0.0 ('To Drown In You') 64bit 2017-10-27 21:45:50 / mkvmerge v10.0.0 ('To Drown In You') 64bit 2017-10-27 21:45:50 / UTC 2017-10-27T20:30:43Z
    FromStats_BitRate           : 192000
    FromStats_Duration          : 01:31:58.528000000
    FromStats_FrameCount        : 172454
    FromStats_StreamSize        : 132444672

    Audio #2
    ID                          : 3
    Format                      : AC-3
    Format/Info                 : Audio Coding 3
    Format settings, Endianness : Big
    Codec ID                    : A_AC3
    Duration                    : 1 h 32 min
    Bit rate mode               : Constant
    Bit rate                    : 384 kb/s
    Channel(s)                  : 6 channels
    Channel positions           : Front: L C R, Side: L R, LFE
    Sampling rate               : 48.0 kHz
    Frame rate                  : 31.250 FPS (1536 SPF)
    Bit depth                   : 16 bits
    Compression mode            : Lossy
    Delay relative to video     : -5 ms
    Stream size                 : 253 MiB (10%)
    Title                       : Surround
    Language                    : English
    Service kind                : Complete Main
    Default                     : No
    Forced                      : No
    Statistics Tags Issue       : mkvmerge v10.0.0 ('To Drown In You') 64bit 2017-10-27 21:45:50 / mkvmerge v10.0.0 ('To Drown In You') 64bit 2017-10-27 21:45:50 / UTC 2017-10-27T20:30:43Z
    FromStats_BitRate           : 384000
    FromStats_Duration          : 01:32:01.440000000
    FromStats_FrameCount        : 172545
    FromStats_StreamSize        : 265029120

    Text
    ID                          : 4
    Format                      : UTF-8
    Codec ID                    : S_TEXT/UTF8
    Codec ID/Info               : UTF-8 Plain Text
    Language                    : Spanish
    Default                     : Yes
    Forced                      : No
    Statistics Tags Issue       : mkvmerge v10.0.0 ('To Drown In You') 64bit 2017-10-27 21:45:50 / mkvmerge v10.0.0 ('To Drown In You') 64bit 2017-10-27 21:45:50 / UTC 2017-10-27T20:30:43Z
    FromStats_BitRate           : 49
    FromStats_Duration          : 01:27:28.610000000
    FromStats_FrameCount        : 898
    FromStats_StreamSize        : 32753

    Menu
    00:00:00.000                : :Chapter 1
    00:09:47.879                : :Chapter 2
    00:17:12.865                : :Chapter 3
    00:25:10.384                : :Chapter 4
    00:33:38.850                : :Chapter 5
    00:39:56.060                : :Chapter 6
    00:49:01.939                : :Chapter 7
    00:57:03.962                : :Chapter 8
    01:04:01.796                : :Chapter 9
    01:12:30.179                : :Chapter 10
    01:20:08.137                : :Chapter 11
    01:27:56.938                : :Chapter 12

  • Peso: 2.56 GiB

Sinopsis

Un peligroso virus se ha propagado por todo el planeta. Con más infectados que no infectados, la humanidad corre un grave peligro. De momento está perdiendo la lucha por la supervivencia y su única esperanza es encontrar una cura y contener a los infectados. Lauren es una doctora que, tras la caída de Nueva York, se va Los Ángeles para encabezar un equipo que rescate a los supervivientes no infectados. Con sus trajes anti-contaminación equipados con cámaras que permiten investigar la situación, emprenden su misión. Pero nada podía prepararlos para lo que van a encontrar

Ficha técnica

Video trailer de la película

Enlaces de descarga

Descargar Pandemic (2016) 1080p Latino
Descargar

dpeliculas

Aportes de DPeliculasHDmega la pass es:dpeliculashdmega.org Aportes de CinemaniaHD la pass es:cinemaniahdd.com
Guardado en : Acción , Ciencia ficción , Suspense

Películas relacionadas

  • Avatar (2009) EXTENDED Full 1080p Latino

    2009
    Avatar (2009) EXTENDED Full 1080p Latino

    0.0 2 h 58 min 2009

    Jake Sully, un ex-marine confinado a una silla de ruedas, es reclutado para viajar al planeta Pandora,...

    Director: James Cameron

    Género: Acción

    Actores: Zoe Saldana

  • 300: El origen de un imperio (2014) Full 1080p Latino

    2014
    300: El origen de un imperio (2014) Full 1080p Latino

    5.0 1 h 42 min 2014

    La historia se ambienta en el año 490 a.C., unos diez años antes de la batalla de las Termópilas....

    Director: Noam Murro

    Género: Acción

    Actores: Wayne Dalglish

  • Imparable (2010) Full 1080p Latino

    2010
    Imparable (2010) Full 1080p Latino

    5.0 1 h 38 min 2010

    El destino cruza las vidas de un veterano ingeniero y la de un joven conductor cuando ambos tengan que...

    Director: Tony Scott

    Género: Acción

    Actores: Toni Saladna

  • Asesino: Mision Venganza (2017) WEBDL 1080p Latino

    2017
    Asesino: Mision Venganza (2017) WEBDL 1080p Latino

    4.0 1 h 51 min 2017

    Adaptación cinematográfica de la novela homónima de Vince Flynnm, cuya trama presenta a Mitch Rapp...

    Director: Michael Cuesta

    Género: Acción

    Actores: Yousef Sweid

Comentarios 0