Ozzy (2016) 1080p Latino

2.062 vistas
1 estrella2 estrellas3 estrellas4 estrellas5 estrellas (1 votos, promedio: 1,00 de 5)
Cargando…

Información de Ozzy (2016) 1080p Latino

Datos de la película

  • Calidad: 1080p
  • Audio: Español Latino AC3 5.1 DVD - Ingles AC3 5.1 BLURAY
  • Subtitulos: Español Latino SRT - Ingles SRT
  • Resolución: 1920x1032p
  • Formato: MKV
  • Codec: H.264
  • Encoder: Dpelis
  • Mediainfo: Ver Ver
  • Ozzy.2016.1080p.LATINO.mkv
    Format                      : Matroska
    Format version              : Version 4 / Version 2
    File size                   : 2.74 GiB
    Duration                    : 1 h 30 min
    Overall bit rate            : 4 315 kb/s
    Movie name                  : DPeliculasHDMega.ORG
    Encoded date                : UTC 2017-06-10 20:00:34 / UTC 2017-06-10T17:33:41Z
    Writing application         : mkvmerge v10.0.0 ('To Drown In You') 64bit
    Writing library             : libebml v1.3.4 + libmatroska v1.4.5 / Lavf57.7.2
    COMPOSER                    : Encoder *BDP

    Video
    ID                          : 1
    Format                      : AVC
    Format/Info                 : Advanced Video Codec
    Format profile              : High@L4.1
    Format settings, CABAC      : Yes
    Format settings, ReFrames   : 4 frames
    Codec ID                    : V_MPEG4/ISO/AVC
    Duration                    : 1 h 30 min
    Bit rate                    : 3 500 kb/s
    Width                       : 1 920 pixels
    Height                      : 1 032 pixels
    Display aspect ratio        : 1.85:1
    Frame rate mode             : Constant
    Frame rate                  : 24.000 FPS
    Color space                 : YUV
    Chroma subsampling          : 4:2:0
    Bit depth                   : 8 bits
    Scan type                   : Progressive
    Bits/(Pixel*Frame)          : 0.074
    Stream size                 : 2.15 GiB (79%)
    Writing library             : x264 core 148 r2708 86b7198
    Encoding settings           : cabac=1 / ref=3 / deblock=1:0:0 / analyse=0x3:0x113 / me=hex / subme=7 / psy=1 / psy_rd=1.00:0.00 / mixed_ref=1 / me_range=16 / chroma_me=1 / trellis=1 / 8x8dct=1 / cqm=0 / deadzone=21,11 / fast_pskip=1 / chroma_qp_offset=-2 / threads=12 / lookahead_threads=2 / sliced_threads=0 / nr=0 / decimate=1 / interlaced=0 / bluray_compat=0 / constrained_intra=0 / bframes=3 / b_pyramid=2 / b_adapt=1 / b_bias=0 / direct=1 / weightb=1 / open_gop=0 / weightp=2 / keyint=240 / keyint_min=24 / scenecut=40 / intra_refresh=0 / rc_lookahead=40 / rc=abr / mbtree=1 / bitrate=3500 / ratetol=1.0 / qcomp=0.60 / qpmin=0 / qpmax=69 / qpstep=4 / vbv_maxrate=62500 / vbv_bufsize=78125 / nal_hrd=none / filler=0 / ip_ratio=1.40 / aq=1:1.00
    Default                     : Yes
    Forced                      : No
    Color range                 : Limited
    Color primaries             : BT.709
    Transfer characteristics    : BT.709
    Matrix coefficients         : BT.709
    Statistics Tags Issue       : mkvmerge v10.0.0 ('To Drown In You') 64bit 2017-06-10 20:00:34 / mkvmerge v10.0.0 ('To Drown In You') 64bit 2017-06-10 20:00:34 / UTC 2017-06-10T17:33:41Z
    FromStats_BitRate           : 3482425
    FromStats_Duration          : 01:30:44.542000000
    FromStats_FrameCount        : 130669
    FromStats_StreamSize        : 2370026316

    Audio #1
    ID                          : 2
    Format                      : AC-3
    Format/Info                 : Audio Coding 3
    Format settings, Endianness : Big
    Codec ID                    : A_AC3
    Duration                    : 1 h 30 min
    Bit rate mode               : Constant
    Bit rate                    : 448 kb/s
    Channel(s)                  : 6 channels
    Channel positions           : Front: L C R, Side: L R, LFE
    Sampling rate               : 48.0 kHz
    Frame rate                  : 31.250 FPS (1536 spf)
    Bit depth                   : 16 bits
    Compression mode            : Lossy
    Delay relative to video     : -5 ms
    Stream size                 : 291 MiB (10%)
    Language                    : Spanish
    Service kind                : Complete Main
    Default                     : Yes
    Forced                      : No
    Statistics Tags Issue       : mkvmerge v10.0.0 ('To Drown In You') 64bit 2017-06-10 20:00:34 / mkvmerge v10.0.0 ('To Drown In You') 64bit 2017-06-10 20:00:34 / UTC 2017-06-10T17:33:41Z
    FromStats_BitRate           : 448000
    FromStats_Duration          : 01:30:46.912000000
    FromStats_FrameCount        : 170216
    FromStats_StreamSize        : 305027072

    Audio #2
    ID                          : 3
    Format                      : AC-3
    Format/Info                 : Audio Coding 3
    Format settings, Endianness : Big
    Codec ID                    : A_AC3
    Duration                    : 1 h 30 min
    Bit rate mode               : Constant
    Bit rate                    : 384 kb/s
    Channel(s)                  : 6 channels
    Channel positions           : Front: L C R, Side: L R, LFE
    Sampling rate               : 48.0 kHz
    Frame rate                  : 31.250 FPS (1536 spf)
    Bit depth                   : 16 bits
    Compression mode            : Lossy
    Delay relative to video     : -5 ms
    Stream size                 : 249 MiB (9%)
    Title                       : Surround
    Language                    : English
    Service kind                : Complete Main
    Default                     : No
    Forced                      : No
    Statistics Tags Issue       : mkvmerge v10.0.0 ('To Drown In You') 64bit 2017-06-10 20:00:34 / mkvmerge v10.0.0 ('To Drown In You') 64bit 2017-06-10 20:00:34 / UTC 2017-06-10T17:33:41Z
    FromStats_BitRate           : 384000
    FromStats_Duration          : 01:30:44.608000000
    FromStats_FrameCount        : 170144
    FromStats_StreamSize        : 261341184

    Text #1
    ID                          : 4
    Format                      : UTF-8
    Codec ID                    : S_TEXT/UTF8
    Codec ID/Info               : UTF-8 Plain Text
    Language                    : Spanish
    Default                     : No
    Forced                      : No
    Statistics Tags Issue       : mkvmerge v10.0.0 ('To Drown In You') 64bit 2017-06-10 20:00:34 / mkvmerge v10.0.0 ('To Drown In You') 64bit 2017-06-10 20:00:34 / UTC 2017-06-10T17:33:41Z
    FromStats_BitRate           : 39
    FromStats_Duration          : 01:24:37.583000000
    FromStats_FrameCount        : 599
    FromStats_StreamSize        : 24928

    Text #2
    ID                          : 5
    Format                      : UTF-8
    Codec ID                    : S_TEXT/UTF8
    Codec ID/Info               : UTF-8 Plain Text
    Language                    : English
    Default                     : No
    Forced                      : No
    Statistics Tags Issue       : mkvmerge v10.0.0 ('To Drown In You') 64bit 2017-06-10 20:00:34 / mkvmerge v10.0.0 ('To Drown In You') 64bit 2017-06-10 20:00:34 / UTC 2017-06-10T17:33:41Z
    FromStats_BitRate           : 41
    FromStats_Duration          : 01:25:17.712000000
    FromStats_FrameCount        : 598
    FromStats_StreamSize        : 26447

    Text #3
    ID                          : 6
    Format                      : UTF-8
    Codec ID                    : S_TEXT/UTF8
    Codec ID/Info               : UTF-8 Plain Text
    Language                    : Spanish
    Default                     : Yes
    Forced                      : No
    Statistics Tags Issue       : mkvmerge v10.0.0 ('To Drown In You') 64bit 2017-06-10 20:00:34 / mkvmerge v10.0.0 ('To Drown In You') 64bit 2017-06-10 20:00:34 / UTC 2017-06-10T17:33:41Z
    FromStats_BitRate           : 45
    FromStats_Duration          : 00:00:20.100000000
    FromStats_FrameCount        : 1
    FromStats_StreamSize        : 115

  • Peso: 2.74 GB

Sinopsis

La idílica vida de Ozzy, un simpático y pacífico beagle que se ha criado entre algodones junto a la familia Martin, va a dar un vuelco. Cuando su familia no puede llevarle a un largo viaje lejos de su hogar, le depositan en lo que creen que es el mejor balneario canino, Blue Creek. Pero la perfecta estampa del lugar resulta ser una fachada urdida por su villano propietario, y otro destino bien distinto aguarda a Ozzy: éste irá pronto a parar al verdadero Blue Creek, una cárcel para perros, habitada en su mayoría por duros chuchos callejeros y donde prevalece la ley del más fuerte. Allí dentro Ozzy tendrá que esquivar el peligro, encontrar fuerzas donde no creía tenerlas y aprender a apoyarse en Chester, Fronky y Doc, los nuevos amigos que le acompañarán en esta aventura para intentar regresar sano y salvo.

Ficha técnica

Imágenes, Capturas de la película

Video trailer de la película

Enlaces de descarga

Descargar Ozzy (2016) 1080p Latino
Descargar

dpeliculas

Aportes de DPeliculasHDmega la pass es:dpeliculashdmega.org Aportes de CinemaniaHD la pass es:cinemaniahdd.com
Guardado en : Animación , Familia

PelícuDelas relacionadas

  • La isla de los monstruos (2017) WEBDL 1080p Latino

    2017
    La isla de los monstruos (2017) WEBDL 1080p Latino

    0.0 1h 22m 2017

    Lucas descubre que no es humano después de que sorpresivamente se transforma en monstruo frente a los...

    Director: Leopoldo Aguilar

    Género: Animación

    Actores: Roger L. Jackson

  • Enredados otra vez (2017) WEBDL 1080p Latino

    2017
    Enredados otra vez (2017) WEBDL 1080p Latino

    5.0 0h 55m 2017

    Descargar Pelicula Tangled: Before Ever After Calidad WEBDL Latino¡Mientras Rapunzel se prepara para...

    Director: Tom Caulfield

    Género: Animación

    Actores: Zachary Levi

  • Shopkins Chef Club (2016) 1080p WEB-DL Latino

    2016
    Shopkins Chef Club (2016) 1080p WEB-DL Latino

    0.0 0h 0m 2016

    La vida nunca es ordinaria en Shopville, pero las cosas están a punto de obtener un poco extraordinario...

    Director: Raymond McGrath

    Género: Animación

    Actores: Marieve Herington

Comentarios 0