Nunca digas su nombre (2017) Extended 1080p Latino

1.744 vistas
1 estrella2 estrellas3 estrellas4 estrellas5 estrellas (1 votos, promedio: 5,00 de 5)
Cargando…

Información de Nunca digas su nombre (2017) Extended 1080p Latino

Datos de la película

  • Calidad: 1080p
  • Audio: Español Latino AC3 5.1 iTUNES - Ingles AC3 5.1 BLURAY
  • Subtitulos: Español Latino SRT - Ingles SRT
  • Resolución: 1920x1036p
  • Formato: MKV
  • Codec: H.264
  • Encoder: Dpelis
  • Mediainfo: Ver Ver
  • Tthe bye bye men (2017) extended 1080p Latino.mkv
    Format                      : Matroska
    Format version              : Version 4 / Version 2
    File size                   : 2.94 GiB
    Duration                    : 1 h 39 min
    Overall bit rate            : 4 217 kb/s
    Movie name                  : DPeliculasHDMega.ORG
    Encoded date                : UTC 2017-07-13 23:58:09 / UTC 2017-07-11T17:45:31Z
    Writing application         : mkvmerge v10.0.0 ('To Drown In You') 64bit
    Writing library             : libebml v1.3.4 + libmatroska v1.4.5 / Lavf57.7.2

    Video
    ID                          : 1
    Format                      : AVC
    Format/Info                 : Advanced Video Codec
    Format profile              : [email protected]
    Format settings, CABAC      : Yes
    Format settings, ReFrames   : 4 frames
    Codec ID                    : V_MPEG4/ISO/AVC
    Duration                    : 1 h 39 min
    Bit rate                    : 3 301 kb/s
    Nominal bit rate            : 3 500 kb/s
    Width                       : 1 920 pixels
    Height                      : 1 036 pixels
    Display aspect ratio        : 1.85:1
    Frame rate mode             : Constant
    Frame rate                  : 23.976 (24000/1001) FPS
    Color space                 : YUV
    Chroma subsampling          : 4:2:0
    Bit depth                   : 8 bits
    Scan type                   : Progressive
    Bits/(Pixel*Frame)          : 0.069
    Stream size                 : 2.30 GiB (78%)
    Writing library             : x264 core 148 r2708 86b7198
    Encoding settings           : cabac=1 / ref=3 / deblock=1:0:0 / analyse=0x3:0x113 / me=hex / subme=7 / psy=1 / psy_rd=1.00:0.00 / mixed_ref=1 / me_range=16 / chroma_me=1 / trellis=1 / 8x8dct=1 / cqm=0 / deadzone=21,11 / fast_pskip=1 / chroma_qp_offset=-2 / threads=32 / lookahead_threads=5 / sliced_threads=0 / nr=0 / decimate=1 / interlaced=0 / bluray_compat=0 / constrained_intra=0 / bframes=3 / b_pyramid=2 / b_adapt=1 / b_bias=0 / direct=1 / weightb=1 / open_gop=0 / weightp=2 / keyint=240 / keyint_min=24 / scenecut=40 / intra_refresh=0 / rc_lookahead=40 / rc=abr / mbtree=1 / bitrate=3500 / ratetol=1.0 / qcomp=0.60 / qpmin=0 / qpmax=69 / qpstep=4 / vbv_maxrate=62500 / vbv_bufsize=78125 / nal_hrd=none / filler=0 / ip_ratio=1.40 / aq=1:1.00
    Default                     : Yes
    Forced                      : No
    Color range                 : Limited
    Color primaries             : BT.709
    Transfer characteristics    : BT.709
    Matrix coefficients         : BT.709
    Statistics Tags Issue       : mkvmerge v10.0.0 ('To Drown In You') 64bit 2017-07-13 23:58:09 / mkvmerge v10.0.0 ('To Drown In You') 64bit 2017-07-13 23:58:09 / UTC 2017-07-11T17:45:31Z
    FromStats_BitRate           : 3382603
    FromStats_Duration          : 01:39:48.399000000
    FromStats_FrameCount        : 143578
    FromStats_StreamSize        : 2532047526

    Audio #1
    ID                          : 2
    Format                      : AC-3
    Format/Info                 : Audio Coding 3
    Format settings, Endianness : Big
    Codec ID                    : A_AC3
    Duration                    : 1 h 39 min
    Bit rate mode               : Constant
    Bit rate                    : 448 kb/s
    Channel(s)                  : 6 channels
    Channel positions           : Front: L C R, Side: L R, LFE
    Sampling rate               : 48.0 kHz
    Frame rate                  : 31.250 FPS (1536 spf)
    Bit depth                   : 16 bits
    Compression mode            : Lossy
    Delay relative to video     : 4 s 195 ms
    Stream size                 : 320 MiB (11%)
    Language                    : Spanish
    Service kind                : Complete Main
    Default                     : Yes
    Forced                      : No
    Statistics Tags Issue       : mkvmerge v10.0.0 ('To Drown In You') 64bit 2017-07-13 23:58:09 / mkvmerge v10.0.0 ('To Drown In You') 64bit 2017-07-13 23:58:09 / UTC 2017-07-11T17:45:31Z
    FromStats_BitRate           : 448000
    FromStats_Duration          : 01:39:43.808000000
    FromStats_FrameCount        : 186994
    FromStats_StreamSize        : 335093248

    Audio #2
    ID                          : 3
    Format                      : AC-3
    Format/Info                 : Audio Coding 3
    Format settings, Endianness : Big
    Codec ID                    : A_AC3
    Duration                    : 1 h 39 min
    Bit rate mode               : Constant
    Bit rate                    : 384 kb/s
    Channel(s)                  : 6 channels
    Channel positions           : Front: L C R, Side: L R, LFE
    Sampling rate               : 48.0 kHz
    Frame rate                  : 31.250 FPS (1536 spf)
    Bit depth                   : 16 bits
    Compression mode            : Lossy
    Delay relative to video     : -5 ms
    Stream size                 : 274 MiB (9%)
    Title                       : Surround
    Language                    : English
    Service kind                : Complete Main
    Default                     : No
    Forced                      : No
    Statistics Tags Issue       : mkvmerge v10.0.0 ('To Drown In You') 64bit 2017-07-13 23:58:09 / mkvmerge v10.0.0 ('To Drown In You') 64bit 2017-07-13 23:58:09 / UTC 2017-07-11T17:45:31Z
    FromStats_BitRate           : 384000
    FromStats_Duration          : 01:39:48.384000000
    FromStats_FrameCount        : 187137
    FromStats_StreamSize        : 287442432

    Text #1
    ID                          : 4
    Format                      : UTF-8
    Codec ID                    : S_TEXT/UTF8
    Codec ID/Info               : UTF-8 Plain Text
    Title                       : FORZADOS
    Language                    : Spanish
    Default                     : Yes
    Forced                      : No
    Statistics Tags Issue       : mkvmerge v10.0.0 ('To Drown In You') 64bit 2017-07-13 23:58:09 / mkvmerge v10.0.0 ('To Drown In You') 64bit 2017-07-13 23:58:09 / UTC 2017-07-11T17:45:31Z
    FromStats_BitRate           : 2
    FromStats_Duration          : 01:16:16.870000000
    FromStats_FrameCount        : 50
    FromStats_StreamSize        : 1643

    Text #2
    ID                          : 5
    Format                      : UTF-8
    Codec ID                    : S_TEXT/UTF8
    Codec ID/Info               : UTF-8 Plain Text
    Language                    : Spanish
    Default                     : No
    Forced                      : No
    Statistics Tags Issue       : mkvmerge v10.0.0 ('To Drown In You') 64bit 2017-07-13 23:58:09 / mkvmerge v10.0.0 ('To Drown In You') 64bit 2017-07-13 23:58:09 / UTC 2017-07-11T17:45:31Z
    FromStats_BitRate           : 44
    FromStats_Duration          : 01:31:44.305000000
    FromStats_FrameCount        : 1140
    FromStats_StreamSize        : 30716

    Text #3
    ID                          : 6
    Format                      : UTF-8
    Codec ID                    : S_TEXT/UTF8
    Codec ID/Info               : UTF-8 Plain Text
    Language                    : English
    Default                     : No
    Forced                      : No
    Statistics Tags Issue       : mkvmerge v10.0.0 ('To Drown In You') 64bit 2017-07-13 23:58:09 / mkvmerge v10.0.0 ('To Drown In You') 64bit 2017-07-13 23:58:09 / UTC 2017-07-11T17:45:31Z
    FromStats_BitRate           : 46
    FromStats_Duration          : 01:31:42.671000000
    FromStats_FrameCount        : 1162
    FromStats_StreamSize        : 32196

    Menu
    00:00:00.000                : :Chapter 1
    00:06:11.788                : :Chapter 2
    00:11:44.954                : :Chapter 3
    00:16:33.993                : :Chapter 4
    00:20:57.548                : :Chapter 5
    00:26:35.844                : :Chapter 6
    00:30:00.299                : :Chapter 7
    00:34:58.221                : :Chapter 8
    00:39:18.356                : :Chapter 9
    00:42:49.150                : :Chapter 10
    00:47:51.869                : :Chapter 11
    00:52:59.968                : :Chapter 12
    00:57:53.095                : :Chapter 13
    01:02:57.440                : :Chapter 14
    01:07:04.687                : :Chapter 15
    01:11:01.799                : :Chapter 16
    01:18:19.653                : :Chapter 17
    01:22:39.121                : :Chapter 18
    01:30:45.065                : :Chapter 19
    01:33:25.058                : :Chapter 20

  • Peso: 2.94 GB

Sinopsis

The Bye bye Man hd 1080p latino version Extendida Cuando tres estudiantes universitarios se mudan a una vieja casa fuera del campus, accidentalmente, dan rienda suelta a una entidad sobrenatural conocida como “Bye Bye Man”, quien los hace presa en cuanto descubren su nombre. Los amigos deben tratar de salvarse, al mismo tiempo que mantienen la existencia de “Bye Bye Man” secreta para salvar a otros de la misma suerte mortal..

 

Nota: Audio Español Latino del iTunes pero fue editado para la versión extendida.

Ficha técnica

Imágenes, Capturas de la película

Video trailer de la película

Enlaces de descarga

Descargar Nunca digas su nombre (2017) Extended 1080p Latino
Descargar

dpeliculas

Aportes de DPeliculasHDmega la pass es:dpeliculashdmega.org Aportes de CinemaniaHD la pass es:cinemaniahdd.com
Guardado en : Suspense , Terror

PelícuDelas relacionadas

  • La autopsia de Jane Doe (2016) 1080p Latino

    2016
    La autopsia de Jane Doe (2016) 1080p Latino

    4.0 1h 39m 2016

    Tommy y Austin Tilden regentan una morgue y un crematorio en Virginia. Un día, el sheriff local les...

    Director: Sheila McNaught

    Género: Misterio

    Actores: Parker Sawyers

  • The Ring 2 (2005) WEB-DL 1080p Latino

    2005
    The Ring 2 (2005) WEB-DL 1080p Latino

    0.0 1h 51m 2005

    Descargar gratis The Ring 2 (2005) WEB-DL 1080p Latino. Para escapar de una vida que era una auténtica...

    Director: Trudy Ramirez

    Género: Drama

    Actores: Sissy Spacek

  • The Ring (2002) Full Latino

    2002
    The Ring (2002) Full Latino

    0.0 1h 45m 2002

    Descargar gratis The Ring (2002) Full Latino. Rachel Keller es una periodista de investigación que no...

    Director: Gore Verbinski

    Género: Misterio

    Actores: Shannon Cochran

  • The Grudge 3 (2009) Full Latino

    2009
    The Grudge 3 (2009) Full Latino

    0.0 1h 30m 2009

    Descargar gratis The Grudge 3 (2009) Full Latino. Tercera entrega americana de la saga iniciada por Takashi...

    Director: Toby Wilkins

    Género: FULL 1080p Pesadas

    Actores: Shimba Tsuchiya

Comentarios 0