Nunca digas su nombre (2017) Theatrical 1080p Latino

1.423 vistas
1 estrella2 estrellas3 estrellas4 estrellas5 estrellas (Ninguna valoración todavía)
Cargando…

Información de Nunca digas su nombre (2017) Theatrical 1080p Latino

Datos de la película

  • Calidad: 1080p
  • Audio: Español Latino AC3 5.1 iTUNES - Ingles AC3 5.1 BLURAY
  • Subtitulos: Español Latino SRT - Ingles SRT
  • Resolución: 1920X1036p
  • Formato: MKV
  • Codec: H.264
  • Encoder: Dpelis
  • Mediainfo: Ver Ver
  • The Bye Bye Man 2017 1080p Latino.mkv
    Format                      : Matroska
    Format version              : Version 4 / Version 2
    File size                   : 2.84 GiB
    Duration                    : 1 h 36 min
    Overall bit rate            : 4 218 kb/s
    Movie name                  : DPeliculasHDMega.ORG
    Encoded date                : UTC 2017-07-12 00:13:58 / UTC 2017-07-11T22:44:35Z
    Writing application         : mkvmerge v10.0.0 ('To Drown In You') 64bit
    Writing library             : libebml v1.3.4 + libmatroska v1.4.5 / Lavf57.7.2

    Video
    ID                          : 1
    Format                      : AVC
    Format/Info                 : Advanced Video Codec
    Format profile              : [email protected]
    Format settings, CABAC      : Yes
    Format settings, ReFrames   : 4 frames
    Codec ID                    : V_MPEG4/ISO/AVC
    Duration                    : 1 h 36 min
    Bit rate                    : 3 302 kb/s
    Nominal bit rate            : 3 500 kb/s
    Width                       : 1 920 pixels
    Height                      : 1 036 pixels
    Display aspect ratio        : 1.85:1
    Frame rate mode             : Constant
    Frame rate                  : 23.976 (24000/1001) FPS
    Color space                 : YUV
    Chroma subsampling          : 4:2:0
    Bit depth                   : 8 bits
    Scan type                   : Progressive
    Bits/(Pixel*Frame)          : 0.069
    Stream size                 : 2.22 GiB (78%)
    Writing library             : x264 core 148 r2708 86b7198
    Encoding settings           : cabac=1 / ref=3 / deblock=1:0:0 / analyse=0x3:0x113 / me=hex / subme=7 / psy=1 / psy_rd=1.00:0.00 / mixed_ref=1 / me_range=16 / chroma_me=1 / trellis=1 / 8x8dct=1 / cqm=0 / deadzone=21,11 / fast_pskip=1 / chroma_qp_offset=-2 / threads=12 / lookahead_threads=2 / sliced_threads=0 / nr=0 / decimate=1 / interlaced=0 / bluray_compat=0 / constrained_intra=0 / bframes=3 / b_pyramid=2 / b_adapt=1 / b_bias=0 / direct=1 / weightb=1 / open_gop=0 / weightp=2 / keyint=240 / keyint_min=24 / scenecut=40 / intra_refresh=0 / rc_lookahead=40 / rc=abr / mbtree=1 / bitrate=3500 / ratetol=1.0 / qcomp=0.60 / qpmin=0 / qpmax=69 / qpstep=4 / vbv_maxrate=62500 / vbv_bufsize=78125 / nal_hrd=none / filler=0 / ip_ratio=1.40 / aq=1:1.00
    Default                     : Yes
    Forced                      : No
    Color range                 : Limited
    Color primaries             : BT.709
    Transfer characteristics    : BT.709
    Matrix coefficients         : BT.709
    Statistics Tags Issue       : mkvmerge v10.0.0 ('To Drown In You') 64bit 2017-07-12 00:13:58 / mkvmerge v10.0.0 ('To Drown In You') 64bit 2017-07-12 00:13:58 / UTC 2017-07-11T22:44:35Z
    FromStats_BitRate           : 3383422
    FromStats_Duration          : 01:36:24.154000000
    FromStats_FrameCount        : 138681
    FromStats_StreamSize        : 2446279257

    Audio #1
    ID                          : 2
    Format                      : AC-3
    Format/Info                 : Audio Coding 3
    Format settings, Endianness : Big
    Codec ID                    : A_AC3
    Duration                    : 1 h 36 min
    Bit rate mode               : Constant
    Bit rate                    : 448 kb/s
    Channel(s)                  : 6 channels
    Channel positions           : Front: L C R, Side: L R, LFE
    Sampling rate               : 48.0 kHz
    Frame rate                  : 31.250 FPS (1536 spf)
    Bit depth                   : 16 bits
    Compression mode            : Lossy
    Delay relative to video     : -5 ms
    Stream size                 : 309 MiB (11%)
    Language                    : Spanish
    Service kind                : Complete Main
    Default                     : Yes
    Forced                      : No
    Statistics Tags Issue       : mkvmerge v10.0.0 ('To Drown In You') 64bit 2017-07-12 00:13:58 / mkvmerge v10.0.0 ('To Drown In You') 64bit 2017-07-12 00:13:58 / UTC 2017-07-11T22:44:35Z
    FromStats_BitRate           : 448000
    FromStats_Duration          : 01:36:23.360000000
    FromStats_FrameCount        : 180730
    FromStats_StreamSize        : 323868160

    Audio #2
    ID                          : 3
    Format                      : AC-3
    Format/Info                 : Audio Coding 3
    Format settings, Endianness : Big
    Codec ID                    : A_AC3
    Duration                    : 1 h 36 min
    Bit rate mode               : Constant
    Bit rate                    : 384 kb/s
    Channel(s)                  : 6 channels
    Channel positions           : Front: L C R, Side: L R, LFE
    Sampling rate               : 48.0 kHz
    Frame rate                  : 31.250 FPS (1536 spf)
    Bit depth                   : 16 bits
    Compression mode            : Lossy
    Delay relative to video     : -5 ms
    Stream size                 : 265 MiB (9%)
    Title                       : Surround
    Language                    : English
    Service kind                : Complete Main
    Default                     : No
    Forced                      : No
    Statistics Tags Issue       : mkvmerge v10.0.0 ('To Drown In You') 64bit 2017-07-12 00:13:58 / mkvmerge v10.0.0 ('To Drown In You') 64bit 2017-07-12 00:13:58 / UTC 2017-07-11T22:44:35Z
    FromStats_BitRate           : 384000
    FromStats_Duration          : 01:36:24.160000000
    FromStats_FrameCount        : 180755
    FromStats_StreamSize        : 277639680

    Text #1
    ID                          : 4
    Format                      : UTF-8
    Codec ID                    : S_TEXT/UTF8
    Codec ID/Info               : UTF-8 Plain Text
    Language                    : Spanish
    Default                     : Yes
    Forced                      : No
    Statistics Tags Issue       : mkvmerge v10.0.0 ('To Drown In You') 64bit 2017-07-12 00:13:58 / mkvmerge v10.0.0 ('To Drown In You') 64bit 2017-07-12 00:13:58 / UTC 2017-07-11T22:44:35Z
    FromStats_BitRate           : 44
    FromStats_Duration          : 01:31:44.305000000
    FromStats_FrameCount        : 1140
    FromStats_StreamSize        : 30716

    Text #2
    ID                          : 5
    Format                      : UTF-8
    Codec ID                    : S_TEXT/UTF8
    Codec ID/Info               : UTF-8 Plain Text
    Language                    : English
    Default                     : No
    Forced                      : No
    Statistics Tags Issue       : mkvmerge v10.0.0 ('To Drown In You') 64bit 2017-07-12 00:13:58 / mkvmerge v10.0.0 ('To Drown In You') 64bit 2017-07-12 00:13:58 / UTC 2017-07-11T22:44:35Z
    FromStats_BitRate           : 46
    FromStats_Duration          : 01:31:42.671000000
    FromStats_FrameCount        : 1162
    FromStats_StreamSize        : 32196

    Menu
    00:00:00.000                : :Chapter 1
    00:05:17.776                : :Chapter 2
    00:09:22.896                : :Chapter 3
    00:14:11.976                : :Chapter 4
    00:18:35.531                : :Chapter 5
    00:24:12.952                : :Chapter 6
    00:27:30.941                : :Chapter 7
    00:32:29.322                : :Chapter 8
    00:36:45.912                : :Chapter 9
    00:40:17.624                : :Chapter 10
    00:45:20.301                : :Chapter 11
    00:49:55.534                : :Chapter 12
    00:54:48.702                : :Chapter 13
    00:59:52.547                : :Chapter 14
    01:03:59.753                : :Chapter 15
    01:07:55.989                : :Chapter 16
    01:14:59.245                : :Chapter 17
    01:19:26.345                : :Chapter 18
    01:27:20.986                : :Chapter 19
    01:30:01.021                : :Chapter 20

  • Peso: 2.84 GB

Sinopsis

Descargar Peliculas The Bye bye Men hd latino tambien conocida Nunca digas su nombre 1080p latino Cuando tres estudiantes universitarios se mudan a una vieja casa fuera del campus, sin querer liberan a (Bye Bye Man), un ente sobrenatural que persigue a quien descubre su nombre. Intentarán mantener su existencia en secreto para alejar al resto de una muerte segura.

Ficha técnica

Imágenes, Capturas de la película

Video trailer de la película

Enlaces de descarga

Descargar Nunca digas su nombre (2017) Theatrical 1080p Latino
Descargar

dpeliculas

Aportes de DPeliculasHDmega la pass es:dpeliculashdmega.org Aportes de CinemaniaHD la pass es:cinemaniahdd.com
Guardado en : Suspense , Terror

PelícuDelas relacionadas

  • La autopsia de Jane Doe (2016) 1080p Latino

    2016
    La autopsia de Jane Doe (2016) 1080p Latino

    4.0 1h 39m 2016

    Tommy y Austin Tilden regentan una morgue y un crematorio en Virginia. Un día, el sheriff local les...

    Director: Sheila McNaught

    Género: Misterio

    Actores: Parker Sawyers

  • The Ring 2 (2005) WEB-DL 1080p Latino

    2005
    The Ring 2 (2005) WEB-DL 1080p Latino

    0.0 1h 51m 2005

    Descargar gratis The Ring 2 (2005) WEB-DL 1080p Latino. Para escapar de una vida que era una auténtica...

    Director: Trudy Ramirez

    Género: Drama

    Actores: Sissy Spacek

  • The Ring (2002) Full Latino

    2002
    The Ring (2002) Full Latino

    0.0 1h 45m 2002

    Descargar gratis The Ring (2002) Full Latino. Rachel Keller es una periodista de investigación que no...

    Director: Gore Verbinski

    Género: Misterio

    Actores: Shannon Cochran

  • The Grudge 3 (2009) Full Latino

    2009
    The Grudge 3 (2009) Full Latino

    0.0 1h 30m 2009

    Descargar gratis The Grudge 3 (2009) Full Latino. Tercera entrega americana de la saga iniciada por Takashi...

    Director: Toby Wilkins

    Género: FULL 1080p Pesadas

    Actores: Shimba Tsuchiya

Comentarios 3
  • dilan - 13 Julio, 2017

    principalmente es un dolor de cabesa para poder descargar el tema de la pelicula ya que no se puede descargar de una ves hay que descargar por partes y ni siquiera da el link para el mega es una burla no se por que creen que uno solo quiere quitarle la pelicula pero estan equivocados busque en todos lados y esta parecia la mas confiable y facil de poder descargar pero una !!! de pagina a todos mis compañeros quedaremos con las ganas de ver la !!! pelicula que la tienen mas cuidada de oro son unchiste !!! de pagina dan !!!

    • Gerardo - 13 Julio, 2017

      Que mala ortografía :v

    • Jhefferson - 13 Julio, 2017

      @Dilan Tampoco es que sean demasiados links no te quitara mas de 2 minutos abrirlos todos bueno por lo menos a mi no ademas ellos hacen lo posible por subir las peliculas en buena calidad y tu bienes aqui a exigirles que desagradecido eres man y por ultimo no insultes la pagina que la pagina esta demasiado bien ya si no es de tu gusto es otra cosa ademas tu aun crees que mega es el mejor servidor cuando le puedes dar la oportunidad a google drive que va excelente.