No estamos solos (2016) WEBDL 1080p Latino

2.798 vistas
1 estrella2 estrellas3 estrellas4 estrellas5 estrellas (1 votos, promedio: 5,00 de 5)
Cargando…

Información de No estamos solos (2016) WEBDL 1080p Latino

Datos de la película

  • Calidad: WEBDL
  • Audio: Español Latino AC3 2.0 iTunes
  • Subtitulos: No
  • Resolución: 1920x804p
  • Formato: MKV
  • Codec: H.264
  • Encoder: Dpelis
  • Mediainfo: Ver Ver
  • No Estamos Solos (2016)WEBDL 1080P Latino.mkv
    Format                      : Matroska
    Format version              : Version 4 / Version 2
    File size                   : 2.09 GiB
    Duration                    : 1 h 16 min
    Overall bit rate            : 3 924 kb/s
    Movie name                  : DPeliculasHDMega.ORG
    Encoded date                : UTC 2017-05-25 19:32:15
    Writing application         : mkvmerge v10.0.0 ('To Drown In You') 64bit
    Writing library             : libebml v1.3.4 + libmatroska v1.4.5

    Video
    ID                          : 1
    Format                      : AVC
    Format/Info                 : Advanced Video Codec
    Format profile              : [email protected]
    Format settings, CABAC      : Yes
    Format settings, ReFrames   : 3 frames
    Codec ID                    : V_MPEG4/ISO/AVC
    Duration                    : 1 h 16 min
    Bit rate mode               : Constant
    Bit rate                    : 3 698 kb/s
    Nominal bit rate            : 4 000 kb/s / 4 000 kb/s
    Width                       : 1 920 pixels
    Height                      : 804 pixels
    Display aspect ratio        : 2.40:1
    Frame rate mode             : Constant
    Frame rate                  : 30.000 FPS
    Standard                    : NTSC
    Color space                 : YUV
    Chroma subsampling          : 4:2:0
    Bit depth                   : 8 bits
    Scan type                   : Progressive
    Bits/(Pixel*Frame)          : 0.080
    Stream size                 : 1.97 GiB (94%)
    Writing library             : x264 core 114
    Encoding settings           : cabac=1 / ref=3 / deblock=1:0:0 / analyse=0x3:0x113 / me=hex / subme=7 / psy=1 / psy_rd=1.00:0.00 / mixed_ref=1 / me_range=16 / chroma_me=1 / trellis=1 / 8x8dct=1 / cqm=2 / deadzone=21,11 / fast_pskip=1 / chroma_qp_offset=-2 / threads=12 / sliced_threads=0 / slices=1 / nr=0 / decimate=1 / interlaced=0 / constrained_intra=0 / bframes=3 / b_pyramid=0 / b_adapt=1 / b_bias=0 / direct=1 / weightb=1 / open_gop=0 / weightp=2 / keyint=250 / keyint_min=25 / scenecut=40 / intra_refresh=0 / rc_lookahead=40 / rc=cbr / mbtree=1 / bitrate=4000 / ratetol=1.0 / qcomp=0.60 / qpmin=3 / qpmax=69 / qpstep=4 / vbv_maxrate=4000 / vbv_bufsize=3997 / nal_hrd=cbr / ip_ratio=1.40 / aq=1:1.00
    Default                     : Yes
    Forced                      : No
    Color range                 : Limited
    Color primaries             : BT.709
    Transfer characteristics    : BT.709
    Matrix coefficients         : BT.709

    Audio
    ID                          : 2
    Format                      : AC-3
    Format/Info                 : Audio Coding 3
    Format settings, Endianness : Big
    Codec ID                    : A_AC3
    Duration                    : 1 h 16 min
    Bit rate mode               : Constant
    Bit rate                    : 224 kb/s
    Channel(s)                  : 2 channels
    Channel positions           : Front: L R
    Sampling rate               : 48.0 kHz
    Frame rate                  : 31.250 FPS (1536 spf)
    Bit depth                   : 16 bits
    Compression mode            : Lossy
    Stream size                 : 122 MiB (6%)
    Service kind                : Complete Main
    Default                     : Yes
    Forced                      : No

    Text
    ID                          : 3
    Format                      : UTF-8
    Codec ID                    : S_TEXT/UTF8
    Codec ID/Info               : UTF-8 Plain Text
    Duration                    : 10 s 100 ms
    Bit rate                    : 91 b/s
    Count of elements           : 1
    Stream size                 : 115 Bytes (0%)
    Language                    : Spanish
    Default                     : Yes
    Forced                      : No

  • Peso: 2.10 GB

Sinopsis

Familia, Mateo, Mónica y Sofía ocho años, se trasladó a una casa en las afueras de Lima. Desde la primera noche, que es perseguido por el miedo. Estos acoso son cada vez más violenta y destructiva, por lo que necesitan la ayuda de un sacerdote tratando de ayudarles a no imaginar las consecuencias.

Ficha técnica

  • Titulo original: No estamos solos
  • Fecha de lanzamiento: 14-01-2016 (Peru)
  • Director: Daniel Rodríguez
  • Género: Suspense, Terror
  • Puntuación: 5.0 1 votos
  • Duración:
    1h 16m

Imágenes, Capturas de la película

Video trailer de la película

Enlaces de descarga

Descargar
Descargar No estamos solos (2016) WEBDL 1080p Latino

dpeliculas

Aportes de DPeliculasHDmega la pass es:dpeliculashdmega.org Aportes de CinemaniaHD la pass es:cinemaniahdd.com
Guardado en : Suspense , Terror

PelícuDelas relacionadas

  • Collide (2016) 1080p Latino

    2016
    Collide (2016) 1080p Latino

    0.0 1h 39m 2016

    Descargar Persecucion al limite hd latino. Tambien conocida como Collide 1080p Cuando uno de los atracos...

    Director: Eran Creevy

    Género: Acción

    Actores: Nicholas Hoult

  • Gold la gran estafa (2016) 1080p Latino

    2016
    Gold la gran estafa (2016) 1080p Latino

    0.0 2h 1m 2016

    Descarga Gold hd latino, también conocida La gran estafa 1080p latino Kenny Wells es un fracasado hombre...

    Director: Stephen Gaghan

    Género: Aventura

    Actores: Yothin Mapobphun

  • La autopsia de Jane Doe (2016) 1080p Latino

    2016
    La autopsia de Jane Doe (2016) 1080p Latino

    4.0 1h 39m 2016

    Tommy y Austin Tilden regentan una morgue y un crematorio en Virginia. Un día, el sheriff local les...

    Director: Sheila McNaught

    Género: Misterio

    Actores: Parker Sawyers

  • The Ring 2 (2005) WEB-DL 1080p Latino

    2005
    The Ring 2 (2005) WEB-DL 1080p Latino

    0.0 1h 51m 2005

    Descargar gratis The Ring 2 (2005) WEB-DL 1080p Latino. Para escapar de una vida que era una auténtica...

    Director: Trudy Ramirez

    Género: Drama

    Actores: Sissy Spacek

Comentarios 0