Moonlight (2016) 1080p Latino

2.030 vistas
1 estrella2 estrellas3 estrellas4 estrellas5 estrellas (1 votos, promedio: 5,00 de 5)
Cargando…

Información de Moonlight (2016) 1080p Latino

moonlight 1080p latino megahd

Datos de la película

  • Calidad: 1080p
  • Audio: Español Latino AC3 5.1 DVD - Ingles AC3 5.1 BLURAY
  • Subtitulos: Español Latino SRT - Ingles SRT
  • Resolución: 1920x800p
  • Formato: MKV
  • Codec: H.264
  • Encoder: Dpelis
  • Mediainfo: Ver Ver
  • Moonlight.2016.1080p.latino-dpelis.mkv
    Format                      : Matroska
    Format version              : Version 4 / Version 2
    File size                   : 2.93 GiB
    Duration                    : 1 h 50 min
    Overall bit rate            : 3 779 kb/s
    Encoded date                : UTC 2017-05-10 22:03:04 / UTC 2017-05-10T16:25:47Z
    Writing application         : mkvmerge v10.0.0 ('To Drown In You') 64bit
    Writing library             : libebml v1.3.4 + libmatroska v1.4.5 / Lavf57.7.2

    Video
    ID                          : 1
    Format                      : AVC
    Format/Info                 : Advanced Video Codec
    Format profile              : [email protected]
    Format settings, CABAC      : Yes
    Format settings, ReFrames   : 4 frames
    Codec ID                    : V_MPEG4/ISO/AVC
    Duration                    : 1 h 50 min
    Bit rate                    : 2 936 kb/s
    Nominal bit rate            : 3 500 kb/s
    Width                       : 1 920 pixels
    Height                      : 792 pixels
    Display aspect ratio        : 2.40:1
    Frame rate mode             : Constant
    Frame rate                  : 23.976 (24000/1001) FPS
    Color space                 : YUV
    Chroma subsampling          : 4:2:0
    Bit depth                   : 8 bits
    Scan type                   : Progressive
    Bits/(Pixel*Frame)          : 0.081
    Stream size                 : 2.28 GiB (78%)
    Writing library             : x264 core 148 r2708 86b7198
    Encoding settings           : cabac=1 / ref=3 / deblock=1:0:0 / analyse=0x3:0x113 / me=hex / subme=7 / psy=1 / psy_rd=1.00:0.00 / mixed_ref=1 / me_range=16 / chroma_me=1 / trellis=1 / 8x8dct=1 / cqm=0 / deadzone=21,11 / fast_pskip=1 / chroma_qp_offset=-2 / threads=12 / lookahead_threads=2 / sliced_threads=0 / nr=0 / decimate=1 / interlaced=0 / bluray_compat=0 / constrained_intra=0 / bframes=3 / b_pyramid=2 / b_adapt=1 / b_bias=0 / direct=1 / weightb=1 / open_gop=0 / weightp=2 / keyint=240 / keyint_min=24 / scenecut=40 / intra_refresh=0 / rc_lookahead=40 / rc=abr / mbtree=1 / bitrate=3500 / ratetol=1.0 / qcomp=0.60 / qpmin=0 / qpmax=69 / qpstep=4 / vbv_maxrate=62500 / vbv_bufsize=78125 / nal_hrd=none / filler=0 / ip_ratio=1.40 / aq=1:1.00
    Default                     : Yes
    Forced                      : No
    Color range                 : Limited
    Color primaries             : BT.709
    Transfer characteristics    : BT.709
    Matrix coefficients         : BT.709
    Statistics Tags Issue       : mkvmerge v10.0.0 ('To Drown In You') 64bit 2017-05-10 22:03:04 / mkvmerge v10.0.0 ('To Drown In You') 64bit 2017-05-10 22:03:04 / UTC 2017-05-10T16:25:47Z
    FromStats_BitRate           : 3076986
    FromStats_Duration          : 01:50:56.650000000
    FromStats_FrameCount        : 159600
    FromStats_StreamSize        : 2560302903

    Audio #1
    ID                          : 2
    Format                      : AC-3
    Format/Info                 : Audio Coding 3
    Format settings, Endianness : Big
    Codec ID                    : A_AC3
    Duration                    : 1 h 50 min
    Bit rate mode               : Constant
    Bit rate                    : 384 kb/s
    Channel(s)                  : 6 channels
    Channel positions           : Front: L C R, Side: L R, LFE
    Sampling rate               : 48.0 kHz
    Frame rate                  : 31.250 FPS (1536 spf)
    Bit depth                   : 16 bits
    Compression mode            : Lossy
    Delay relative to video     : -5 ms
    Stream size                 : 305 MiB (10%)
    Title                       : Surround
    Language                    : Spanish
    Service kind                : Complete Main
    Default                     : Yes
    Forced                      : No
    Statistics Tags Issue       : mkvmerge v10.0.0 ('To Drown In You') 64bit 2017-05-10 22:03:04 / mkvmerge v10.0.0 ('To Drown In You') 64bit 2017-05-10 22:03:04 / UTC 2017-05-10T16:25:47Z
    FromStats_BitRate           : 384000
    FromStats_Duration          : 01:41:08.288000000
    FromStats_FrameCount        : 189634
    FromStats_StreamSize        : 291277824

    Audio #2
    ID                          : 3
    Format                      : AC-3
    Format/Info                 : Audio Coding 3
    Format settings, Endianness : Big
    Codec ID                    : A_AC3
    Duration                    : 1 h 50 min
    Bit rate mode               : Constant
    Bit rate                    : 384 kb/s
    Channel(s)                  : 6 channels
    Channel positions           : Front: L C R, Side: L R, LFE
    Sampling rate               : 48.0 kHz
    Frame rate                  : 31.250 FPS (1536 spf)
    Bit depth                   : 16 bits
    Compression mode            : Lossy
    Delay relative to video     : -5 ms
    Stream size                 : 305 MiB (10%)
    Title                       : Surround
    Language                    : English
    Service kind                : Complete Main
    Default                     : No
    Forced                      : No
    Statistics Tags Issue       : mkvmerge v10.0.0 ('To Drown In You') 64bit 2017-05-10 22:03:04 / mkvmerge v10.0.0 ('To Drown In You') 64bit 2017-05-10 22:03:04 / UTC 2017-05-10T16:25:47Z
    FromStats_BitRate           : 384000
    FromStats_Duration          : 01:41:08.256000000
    FromStats_FrameCount        : 189633
    FromStats_StreamSize        : 291276288

    Text #1
    ID                          : 4
    Format                      : UTF-8
    Codec ID                    : S_TEXT/UTF8
    Codec ID/Info               : UTF-8 Plain Text
    Language                    : Spanish
    Default                     : No
    Forced                      : No
    Statistics Tags Issue       : mkvmerge v10.0.0 ('To Drown In You') 64bit 2017-05-10 22:03:04 / mkvmerge v10.0.0 ('To Drown In You') 64bit 2017-05-10 22:03:04 / UTC 2017-05-10T16:25:47Z
    FromStats_BitRate           : 32
    FromStats_Duration          : 01:49:46.456000000
    FromStats_FrameCount        : 903
    FromStats_StreamSize        : 26612

    Text #2
    ID                          : 5
    Format                      : UTF-8
    Codec ID                    : S_TEXT/UTF8
    Codec ID/Info               : UTF-8 Plain Text
    Language                    : English
    Default                     : No
    Forced                      : No
    Statistics Tags Issue       : mkvmerge v10.0.0 ('To Drown In You') 64bit 2017-05-10 22:03:04 / mkvmerge v10.0.0 ('To Drown In You') 64bit 2017-05-10 22:03:04 / UTC 2017-05-10T16:25:47Z
    FromStats_BitRate           : 36
    FromStats_Duration          : 01:43:56.902000000
    FromStats_FrameCount        : 928
    FromStats_StreamSize        : 28731

    Text #3
    ID                          : 6
    Format                      : UTF-8
    Codec ID                    : S_TEXT/UTF8
    Codec ID/Info               : UTF-8 Plain Text
    Language                    : Spanish
    Default                     : Yes
    Forced                      : No
    Statistics Tags Issue       : mkvmerge v10.0.0 ('To Drown In You') 64bit 2017-05-10 22:03:04 / mkvmerge v10.0.0 ('To Drown In You') 64bit 2017-05-10 22:03:04 / UTC 2017-05-10T16:25:47Z
    FromStats_BitRate           : 91
    FromStats_Duration          : 00:00:10.100000000
    FromStats_FrameCount        : 1
    FromStats_StreamSize        : 115

    Menu
    00:00:00.000                : :Chapter 1
    00:05:42.425                : :Chapter 2
    00:13:15.878                : :Chapter 3
    00:21:16.734                : :Chapter 4
    00:30:04.052                : :Chapter 5
    00:36:03.787                : :Chapter 6
    00:43:26.896                : :Chapter 7
    00:49:06.694                : :Chapter 8
    00:57:19.561                : :Chapter 9
    01:03:36.021                : :Chapter 10
    01:08:31.524                : :Chapter 11
    01:15:24.937                : :Chapter 12
    01:21:02.983                : :Chapter 13
    01:27:02.884                : :Chapter 14
    01:36:00.797                : :Chapter 15
    01:40:00.411                : :Chapter 16

  • Peso: 2.93 GB

Sinopsis

Descargar Moonlight 1080p latino, tambien conocida como Luz de Luna,Chiron es un niño afroamericano de crecer en uno de los barrios más controvertidas y violentas de Miami. Desde la infancia, la adolescencia para llegar a la etapa adulta, Chiron está luchando por encontrar su lugar en el mundo, en un ambiente donde la violencia no se va. Con los años, el joven está en una lucha interna constante e intensa para descubrir. Además de sufrir de acoso constante, espectro homosexualidad está presente en la vida de Chiron. En su camino, se explorará la masculinidad, sexualidad y se enfrentará a los conflictos de su familia disfuncional.

 

Pelicula Resubida por desafe 05/12/2017

Ficha técnica

  • Titulo original: Moonlight
  • Fecha de lanzamiento: 21-10-2016 (United States of America)
  • Director: Barry Jenkins
  • Género: Drama
  • Puntuación: 5.0 1 votos
  • Duración:
    1h 51m

Imágenes, Capturas de la película

Video trailer de la película

Enlaces de descarga

Descargar Moonlight (2016) 1080p Latino
Descargar

dpeliculas

Aportes de DPeliculasHDmega la pass es:dpeliculashdmega.org Aportes de CinemaniaHD la pass es:cinemaniahdd.com
Guardado en : Drama

PelícuDelas relacionadas

Comentarios 18
  • slash - 12 mayo, 2017

    Tiene un desfase de audio, aplicar -1100 de delay ya sea con su reproductor (VLC o MPC) o con MkvToolnix, muchas gracias cinemania.

    • dpelis

      Administrador
      - 13 mayo, 2017

      gracias. por avisas y ya fue resubida. Saludos

  • seba - 12 mayo, 2017

    amigos el audio latino esta desfazado :/

    • dpelis

      Administrador
      - 13 mayo, 2017

      resubida, disculpa por el error.

  • Fabian - 12 mayo, 2017

    Muchísimas gracias, Son los mejores!!! 🙂

  • Ivan Serrudo - 11 mayo, 2017

    Disculpen, alguien que la haya descargado y verificado que la película esté en latino y con todo bien, seria de mucha ayuda para no descargarla en vano, se les agradece, son una excelente página y sigan adelante XD

    • dpelis

      Administrador
      - 12 mayo, 2017

      fue resubida. Tenia mal la escena.

  • Carlos - 11 mayo, 2017

    Falta el principio de la peli, de todas formas muchas gracias 🙂

  • Fabian - 11 mayo, 2017

    Falta el principio amigo, muchas gracias de todas formas.

    • dpelis

      Administrador
      - 12 mayo, 2017

      resubida,, Disculpa por el error.

  • Ofelia - 11 mayo, 2017

    Hola,me parece o falta el principio de la movie “Luz de Luna” .- Gracias espero vuestra respuesta.-

    • dpelis

      Administrador
      - 11 mayo, 2017

      hola.la verdad no la evisto, esa pelicula. como que cree que falta? otro que que la descargo que nos hagan saber

      • Ofelia - 11 mayo, 2017

        Mira A la Movie le Faltan 9.8 Minutos ,contando los Titulos y la movie ,arranca cuando el Chaval comiendo en la casa del que lo encuentra.- El resto todo está perfecta.- Gracias por tu atención.-

      • Gabriel - 11 mayo, 2017

        Le Hace Falta como 2 Minutos al Inicio

      • harry - 11 mayo, 2017

        Le faltó como 11 minutos del principio

        • dpelis

          Administrador
          - 12 mayo, 2017

          esta bien solo que mal la escena. Ya fue reparadaSaludos

          • Mark - 12 mayo, 2017

            Pero el comienzo esta desincronizado, no he probado mas adelante, pero los primeros minutos estan desincronizados

            • dpelis

              Administrador
              - 13 mayo, 2017

              resubida, disculpa por el error.