Moana Un Mar De Aventuras (2016) FULL HD 1080p

6.532 vistas
1 estrella2 estrellas3 estrellas4 estrellas5 estrellas (6 votos, promedio: 3,50 de 5)
Cargando…

Información de Moana Un Mar De Aventuras (2016) FULL HD 1080p

descargar pelicula moana

Datos de la película

  • Calidad: Full 1080p
  • Audio: Español Latino AC3 5.1 BLURAY - Ingles DTS 5.1 BLURAY
  • Subtitulos: Español Latino PGS - Ingles PGS
  • Resolución: 1920x1080p
  • Formato: MKV
  • Codec: H.265
  • Encoder: SebastianHDx
  • Mediainfo: Ver Ver
  • Moana Un Mar De Aventuras (2016) 1080p BluRay x265 HEVC DTS Dual Latino.mkv
    Format                      : Matroska
    Format version              : Version 4 / Version 2
    File size                   : 4.65 GiB
    Duration                    : 1h 47mn
    Overall bit rate            : 6 212 Kbps
    Encoded date                : UTC 2017-02-22 00:57:38
    Writing application         : mkvmerge v8.6.1 ('Flying') 64bit
    Writing library             : libebml v1.3.3 + libmatroska v1.4.4
    DURATION                    : 01:45:33.994000000
    NUMBER_OF_FRAMES            : 2432
    NUMBER_OF_BYTES             : 20520002
    _STATISTICS_WRITING_APP     : mkvmerge v8.6.1 ('Flying') 64bit
    _STATISTICS_WRITING_DATE_UT : 2017-02-22 00:57:38
    _STATISTICS_TAGS            : BPS DURATION NUMBER_OF_FRAMES NUMBER_OF_BYTES

    Video
    ID                          : 1
    Format                      : HEVC
    Format/Info                 : High Efficiency Video Coding
    Format profile              : [email protected]@Main
    Codec ID                    : V_MPEGH/ISO/HEVC
    Duration                    : 1h 47mn
    Bit rate                    : 3 939 Kbps
    Width                       : 1 920 pixels
    Height                      : 1 080 pixels
    Display aspect ratio        : 16:9
    Frame rate mode             : Constant
    Frame rate                  : 23.976 fps
    Color space                 : YUV
    Chroma subsampling          : 4:2:0
    Bit depth                   : 8 bits
    Bits/(Pixel*Frame)          : 0.079
    Stream size                 : 2.95 GiB (63%)
    Writing library             : x265 1.9:[Windows][GCC 4.9.0][64 bit] 8bit
    Encoding settings           : wpp / ctu=64 / min-cu-size=8 / max-tu-size=32 / tu-intra-depth=1 / tu-inter-depth=1 / me=3 / subme=3 / merange=57 / rect / no-amp / max-merge=3 / temporal-mvp / no-early-skip / rdpenalty=0 / no-tskip / no-tskip-fast / strong-intra-smoothing / no-lossless / no-cu-lossless / no-constrained-intra / no-fast-intra / open-gop / no-temporal-layers / interlace=0 / keyint=240 / min-keyint=24 / scenecut=40 / rc-lookahead=25 / lookahead-slices=4 / bframes=4 / bframe-bias=0 / b-adapt=2 / ref=4 / limit-refs=3 / limit-modes / weightp / no-weightb / aq-mode=1 / qg-size=32 / aq-strength=1.00 / cbqpoffs=0 / crqpoffs=0 / rd=4 / psy-rd=2.00 / rdoq-level=2 / psy-rdoq=1.00 / signhide / deblock / sao / no-sao-non-deblock / b-pyramid / cutree / no-intra-refresh / rc=crf / crf=20.0 / qcomp=0.60 / qpmin=0 / qpmax=51 / qpstep=4 / ipratio=1.40 / pbratio=1.30
    Default                     : Yes
    Forced                      : No
    Color range                 : Limited
    Color primaries             : BT.709
    Transfer characteristics    : BT.709
    Matrix coefficients         : BT.709
    DURATION                    : 01:47:12.802000000
    NUMBER_OF_FRAMES            : 154232
    NUMBER_OF_BYTES             : 3244056663
    _STATISTICS_WRITING_APP     : mkvmerge v8.6.1 ('Flying') 64bit
    _STATISTICS_WRITING_DATE_UT : 2017-02-22 00:57:38
    _STATISTICS_TAGS            : BPS DURATION NUMBER_OF_FRAMES NUMBER_OF_BYTES

    Audio #1
    ID                          : 2
    Format                      : AC-3
    Format/Info                 : Audio Coding 3
    Mode extension              : CM (complete main)
    Format settings, Endianness : Big
    Codec ID                    : A_AC3
    Duration                    : 1h 47mn
    Bit rate mode               : Constant
    Bit rate                    : 640 Kbps
    Channel(s)                  : 6 channels
    Channel positions           : Front: L C R, Side: L R, LFE
    Sampling rate               : 48.0 KHz
    Compression mode            : Lossy
    Delay relative to video     : -83ms
    Stream size                 : 491 MiB (10%)
    Title                       : Español Latino AC3 5.1 [640 Kbps]
    Language                    : Spanish
    Default                     : Yes
    Forced                      : No

    Audio #2
    ID                          : 3
    Format                      : DTS
    Format/Info                 : Digital Theater Systems
    Mode                        : 16
    Format settings, Endianness : Big
    Codec ID                    : A_DTS
    Duration                    : 1h 47mn
    Bit rate mode               : Constant
    Bit rate                    : 1 509 Kbps
    Channel(s)                  : 6 channels
    Channel positions           : Front: L C R, Side: L R, LFE
    Sampling rate               : 48.0 KHz
    Bit depth                   : 24 bits
    Compression mode            : Lossy
    Delay relative to video     : -83ms
    Stream size                 : 1.13 GiB (24%)
    Title                       : Inglés DTS 5.1 [1509 Kbps]
    Language                    : English
    Default                     : No
    Forced                      : No

    Text #1
    ID                          : 4
    Format                      : UTF-8
    Codec ID                    : S_TEXT/UTF8
    Codec ID/Info               : UTF-8 Plain Text
    Title                       : Subtítulos Español Latino - Forzados [SRT]
    Language                    : Spanish
    Default                     : No
    Forced                      : Yes

    Text #2
    ID                          : 5
    Format                      : UTF-8
    Codec ID                    : S_TEXT/UTF8
    Codec ID/Info               : UTF-8 Plain Text
    Title                       : Subtítulos Español Latino [SRT]
    Language                    : Spanish
    Default                     : No
    Forced                      : No

    Text #3
    ID                          : 6
    Format                      : PGS
    Codec ID                    : S_HDMV/PGS
    Codec ID/Info               : Picture based subtitle format used on BDs/HD-DVDs
    Title                       : Subtítulos Español Latino - Forzados [PGS]
    Language                    : Spanish
    Default                     : No
    Forced                      : No

    Text #4
    ID                          : 7
    Format                      : PGS
    Codec ID                    : S_HDMV/PGS
    Codec ID/Info               : Picture based subtitle format used on BDs/HD-DVDs
    Title                       : Subtítulos Español Latino [PGS]
    Language                    : Spanish
    Default                     : No
    Forced                      : No

    Menu
    00:00:00.000                : :Chapter 1
    00:07:15.768                : :Chapter 2
    00:11:59.885                : :Chapter 3
    00:16:13.847                : :Chapter 4
    00:21:29.663                : :Chapter 5
    00:28:02.889                : :Chapter 6
    00:32:11.221                : :Chapter 7
    00:35:16.364                : :Chapter 8
    00:41:36.952                : :Chapter 9
    00:45:04.952                : :Chapter 10
    00:49:10.405                : :Chapter 11
    00:53:21.114                : :Chapter 12
    00:57:33.408                : :Chapter 13
    01:05:45.107                : :Chapter 14
    01:10:46.158                : :Chapter 15
    01:12:52.034                : :Chapter 16
    01:15:41.203                : :Chapter 17
    01:23:16.491                : :Chapter 18
    01:29:51.010                : :Chapter 19
    01:36:13.809                : :Chapter 20

  • Peso: 4.65 GB

Sinopsis

Descargar Moana: Un Mar De Aventuras FULL HD 1080p x265 Una gran comedia de aventuras acerca de un adolescente lleno de energía que se embarca en una arriesgada misión para salvar a su pueblo. Durante su viaje, Moana, es el más poderoso semidiós Maui, usted puede encontrar en sus aventuras se Navigator para convertirse en un experto. Juntos cruzan el océano para un viaje lleno de acción donde se encuentran los grandes monstruos y desafíos imposibles y salvaje; y en el camino, Moana cumple con la misión de sus antepasados y averiguar lo que ha seguido: su propia identidad.

Ficha técnica

Imágenes, Capturas de la película

Video trailer de la película

Enlaces de descarga

Descargar
Descargar Moana Un Mar De Aventuras (2016) FULL HD 1080p

dpeliculas

Aportes de DPeliculasHDmega la pass es:dpeliculashdmega.org Aportes de CinemaniaHD la pass es:cinemaniahdd.com

PelícuDelas relacionadas

  • Poesía sin fin (2016) Full Latino

    2016
    Poesía sin fin (2016) Full Latino

    0.0 0h 0m 2016

    Descargar gratis Poesía sin fin (2016) Full Latino. A traves de la lente autobiográfica de Alejandro...

    Director: Alejandro Jodorowsky

    Género: Drama

    Actores: Pamela Flores

  • El fugitivo (1993) Full 1080p Latino

    1993
    El fugitivo (1993) Full 1080p Latino

    5.0 2h 13m 1993

    El doctor Richard Kimble es un prestigioso cirujano de Chicago con una vida prácticamente perfecta:...

    Director: Andrew Davis

    Género: Acción

    Actores: Turk Muller

Comentarios 18
  • danthor - 25 agosto, 2017

    en vlc se ve mal, con media player classic solo reproduce audio, con media player, power media player no lo reproduce 🙁

    • dpelis

      Administrador
      - 28 agosto, 2017

      instalar k-lite codec,

  • itofeddy - 22 abril, 2017

    Aguante los aportes en H.265

  • jhionny - 10 abril, 2017

    q diferencia entre x264 y x265

    • dpelis

      Administrador
      - 10 abril, 2017

      que las 265 son menos pesos y diferente codec el cual hace que pesen menos.

  • Carlos B - 12 marzo, 2017

    Buenos días, han bloqueado / retirado las dos versiones de 1080 de mega, ¿Qué puedo hacer?

    • dpelis

      Administrador
      - 12 marzo, 2017

      hola no entiendo,, favor explicar mas , saludos

  • KEVIN CHAVEZ - 08 marzo, 2017

    una consulta… cual es la diferencia de esta ersion con la de franja gris palido??? tiene esta más calidad?

  • cesar - 07 marzo, 2017

    porque los links de mega no se pueden descargar desde el navegador?

    • dpelis

      Administrador
      - 07 marzo, 2017

      hola estimado agregele el # despues de /
      ejemplo/
      https//mega.nz./#
      luego confirme si le funciona

      • cesar - 07 marzo, 2017

        Gracias si funciona pero solo puedo descargar con miPony o Jdownloader quisiera saber si hay alguna forma de descargar con MegaDowloader?

  • slash - 05 marzo, 2017

    Gracias.

  • Peteto - 26 febrero, 2017

    Hola, baje la pelicula y solo se accedo al audio y no a la imagen.
    Me pueden ayudar?

  • rick - 25 febrero, 2017

    que pasa con los enlaces de mega me salen raros. no se pueden agregar a MegaDownloader ni descargar 🙁

  • gaston - 23 febrero, 2017

    gracias x las peliculas HEVCX265 SE LES AGRADECE MUCHO LA CALIDAD saludos sigan asi amigos!!!!!