Mindhorn (2016) 1080p Latino

497 vistas
1 estrella2 estrellas3 estrellas4 estrellas5 estrellas (Ninguna valoración todavía)
Cargando…

Información de Mindhorn (2016) 1080p Latino

Datos de la película

  • Calidad: 1080p
  • Audio: Español Latino AC3 5.1 Netflix - Ingles AC3 5.1 BLURAY
  • Subtitulos: Español Latino PGS
  • Resolución: 1920x804p
  • Formato: MKV
  • Codec: H.264
  • Encoder: Dpelis1
  • Mediainfo: Ver Ver
  • Video
    ID                                       : 1
    Format                                   : AVC
    Format/Info                              : Advanced Video Codec
    Format profile                           : [email protected]
    Format settings, CABAC                   : Yes
    Format settings, RefFrames               : 4 frames
    Codec ID                                 : V_MPEG4/ISO/AVC
    Duration                                 : 1 h 28 min
    Bit rate                                 : 3 500 kb/s
    Width                                    : 1 920 pixels
    Height                                   : 804 pixels
    Display aspect ratio                     : 2.40:1
    Frame rate mode                          : Constant
    Frame rate                               : 24.000 FPS
    Color space                              : YUV
    Chroma subsampling                       : 4:2:0
    Bit depth                                : 8 bits
    Scan type                                : Progressive
    Bits/(Pixel*Frame)                       : 0.094
    Stream size                              : 2.11 GiB (84%)
    Writing library                          : x264 core 148 r2708 86b7198
    Encoding settings                        : cabac=1 / ref=3 / deblock=1:0:0 / analyse=0x3:0x113 / me=hex / subme=7 / psy=1 / psy_rd=1.00:0.00 / mixed_ref=1 / me_range=16 / chroma_me=1 / trellis=1 / 8x8dct=1 / cqm=0 / deadzone=21,11 / fast_pskip=1 / chroma_qp_offset=-2 / threads=12 / lookahead_threads=2 / sliced_threads=0 / nr=0 / decimate=1 / interlaced=0 / bluray_compat=0 / constrained_intra=0 / bframes=3 / b_pyramid=2 / b_adapt=1 / b_bias=0 / direct=1 / weightb=1 / open_gop=0 / weightp=2 / keyint=240 / keyint_min=24 / scenecut=40 / intra_refresh=0 / rc_lookahead=40 / rc=abr / mbtree=1 / bitrate=3500 / ratetol=1.0 / qcomp=0.60 / qpmin=0 / qpmax=69 / qpstep=4 / vbv_maxrate=62500 / vbv_bufsize=78125 / nal_hrd=none / filler=0 / ip_ratio=1.40 / aq=1:1.00
    Default                                  : Yes
    Forced                                   : No
    Color range                              : Limited
    Color primaries                          : BT.709
    Transfer characteristics                 : BT.709
    Matrix coefficients                      : BT.709
    Statistics Tags Issue                    : mkvmerge v10.0.0 ('To Drown In You') 64bit 2017-09-09 05:44:48 / mkvmerge v10.0.0 ('To Drown In You') 64bit 2017-09-09 05:44:48 / UTC 2017-09-03T02:06:57Z
    FromStats_BitRate                        : 3492222
    FromStats_Duration                       : 01:27:47.709000000
    FromStats_FrameCount                     : 126425
    FromStats_StreamSize                     : 2299501334

    Audio #1
    ID                                       : 2
    Format                                   : E-AC-3
    Format/Info                              : Enhanced Audio Coding 3
    Format settings, Endianness              : Big
    Codec ID                                 : A_EAC3
    Duration                                 : 1 h 28 min
    Bit rate mode                            : Constant
    Bit rate                                 : 192 kb/s
    Channel(s)                               : 6 channels
    Channel positions                        : Front: L C R, Side: L R, LFE
    Sampling rate                            : 48.0 kHz
    Frame rate                               : 187.500 FPS (256 SPF)
    Compression mode                         : Lossy
    Delay relative to video                  : 19 ms
    Stream size                              : 121 MiB (5%)
    Language                                 : Spanish
    Service kind                             : Complete Main
    Default                                  : Yes
    Forced                                   : No
    Statistics Tags Issue                    : mkvmerge v10.0.0 ('To Drown In You') 64bit 2017-09-09 05:44:48 / mkvmerge v10.0.0 ('To Drown In You') 64bit 2017-09-09 05:44:48 / UTC 2017-09-03T02:06:57Z
    FromStats_BitRate                        : 192000
    FromStats_Duration                       : 01:28:11.872000000
    FromStats_FrameCount                     : 165371
    FromStats_StreamSize                     : 127004928

    Audio #2
    ID                                       : 3
    Format                                   : AC-3
    Format/Info                              : Audio Coding 3
    Format settings, Endianness              : Big
    Codec ID                                 : A_AC3
    Duration                                 : 1 h 28 min
    Bit rate mode                            : Constant
    Bit rate                                 : 384 kb/s
    Channel(s)                               : 6 channels
    Channel positions                        : Front: L C R, Side: L R, LFE
    Sampling rate                            : 48.0 kHz
    Frame rate                               : 31.250 FPS (1536 SPF)
    Bit depth                                : 16 bits
    Compression mode                         : Lossy
    Delay relative to video                  : -5 ms
    Stream size                              : 242 MiB (9%)
    Language                                 : English
    Service kind                             : Complete Main
    Default                                  : No
    Forced                                   : No
    Statistics Tags Issue                    : mkvmerge v10.0.0 ('To Drown In You') 64bit 2017-09-09 05:44:48 / mkvmerge v10.0.0 ('To Drown In You') 64bit 2017-09-09 05:44:48 / UTC 2017-09-03T02:06:57Z
    FromStats_BitRate                        : 384000
    FromStats_Duration                       : 01:27:47.648000000
    FromStats_FrameCount                     : 164614
    FromStats_StreamSize                     : 252847104

    Text #1
    ID                                       : 4
    Format                                   : UTF-8
    Codec ID                                 : S_TEXT/UTF8
    Codec ID/Info                            : UTF-8 Plain Text
    Default                                  : Yes
    Forced                                   : No
    Statistics Tags Issue                    : mkvmerge v10.0.0 ('To Drown In You') 64bit 2017-09-09 05:44:48 / mkvmerge v10.0.0 ('To Drown In You') 64bit 2017-09-09 05:44:48 / UTC 2017-09-03T02:06:57Z
    FromStats_BitRate                        : 87
    FromStats_Duration                       : 00:00:10.100000000
    FromStats_FrameCount                     : 1
    FromStats_StreamSize                     : 110

    Text #2
    ID                                       : 5
    Format                                   : PGS
    Muxing mode                              : zlib
    Codec ID                                 : S_HDMV/PGS
    Codec ID/Info                            : Picture based subtitle format used on BDs/HD-DVDs
    Language                                 : Spanish
    Default                                  : No
    Forced                                   : No
    Statistics Tags Issue                    : mkvmerge v10.0.0 ('To Drown In You') 64bit 2017-09-09 05:44:48 / mkvmerge v10.0.0 ('To Drown In You') 64bit 2017-09-09 05:44:48 / UTC 2017-09-03T02:06:57Z
    FromStats_BitRate                        : 28170
    FromStats_Duration                       : 01:22:41.899000000
    FromStats_FrameCount                     : 3134
    FromStats_StreamSize                     : 17472504

    Menu
    00:00:00.000                             : :Chapter 1
    00:07:11.000                             : :Chapter 2
    00:13:28.000                             : :Chapter 3
    00:21:25.000                             : :Chapter 4
    00:27:19.000                             : :Chapter 5
    00:32:57.000                             : :Chapter 6
    00:40:22.000                             : :Chapter 7
    00:48:19.000                             : :Chapter 8
    00:56:08.000                             : :Chapter 9
    01:03:26.000                             : :Chapter 10
    01:10:08.000                             : :Chapter 11
    01:16:14.000                             : :Chapter 12

  • Peso: 2,51 GB

Sinopsis

Descargar gratis Mindhorn (2016) 1080p Latino. Cuando el agente especial del MI5 Bruce Mindhorn fue capturado en los años 80, su ojo fue reemplazado por un detector de mentiras superavanzado, de tal manera que puede literalmente “ver la verdad”. Escpó y se instaló en la Isla de Man para recuperarse. A día de hoy es el mejor detective de la isla.

Ficha técnica

  • Titulo original: Mindhorn
  • Fecha de lanzamiento: 05-05-2017 (United Kingdom)
  • Director: Kriss Landin, Sean Foley
  • Género: Comedia
  • Puntuación: 0.0 0 votos
  • Duración:
    1h 29m

Imágenes, Capturas de la película

Video trailer de la película

Enlaces de descarga

Descargar Mindhorn (2016) 1080p Latino
Descargar

dpeliculas

Aportes de DPeliculasHDmega la pass es:dpeliculashdmega.org Aportes de CinemaniaHD la pass es:cinemaniahdd.com
Guardado en : Comedia

PelícuDelas relacionadas

Comentarios 0