Mi prima Rachel (2017) 1080p Latino

728 vistas
1 estrella2 estrellas3 estrellas4 estrellas5 estrellas (Ninguna valoración todavía)
Cargando…

Información de Mi prima Rachel (2017) 1080p Latino

Datos de la película

  • Calidad: 1080p
  • Audio: Español Latino AC3 5.1 BLURAY - Ingles AC3 5.1 BLURAY
  • Subtitulos: Español Latino SRT - Ingles SRT
  • Resolución: 1892x804p
  • Formato: MKV
  • Codec: H.264
  • Encoder: Dpelis
  • Mediainfo: Ver Ver
  • My Cousin Rachel (2017) 1080p Latino.mkv
    Format                      : Matroska
    Format version              : Version 4 / Version 2
    File size                   : 3.14 GiB
    Duration                    : 1 h 46 min
    Overall bit rate            : 4 229 kb/s
    Movie name                  : DPeliculasHDMega.ORG
    Encoded date                : UTC 2017-08-25 15:43:24 / UTC 2017-08-24T23:43:39Z
    Writing application         : mkvmerge v10.0.0 ('To Drown In You') 64bit
    Writing library             : libebml v1.3.4 + libmatroska v1.4.5 / Lavf57.7.2

    Video
    ID                          : 1
    Format                      : AVC
    Format/Info                 : Advanced Video Codec
    Format profile              : [email protected]
    Format settings, CABAC      : Yes
    Format settings, ReFrames   : 4 frames
    Codec ID                    : V_MPEG4/ISO/AVC
    Duration                    : 1 h 46 min
    Bit rate                    : 3 500 kb/s
    Width                       : 1 892 pixels
    Height                      : 804 pixels
    Display aspect ratio        : 2.35:1
    Frame rate mode             : Constant
    Frame rate                  : 23.976 (24000/1001) FPS
    Color space                 : YUV
    Chroma subsampling          : 4:2:0
    Bit depth                   : 8 bits
    Scan type                   : Progressive
    Bits/(Pixel*Frame)          : 0.096
    Stream size                 : 2.50 GiB (80%)
    Writing library             : x264 core 148 r2708 86b7198
    Encoding settings           : cabac=1 / ref=3 / deblock=1:0:0 / analyse=0x3:0x113 / me=hex / subme=7 / psy=1 / psy_rd=1.00:0.00 / mixed_ref=1 / me_range=16 / chroma_me=1 / trellis=1 / 8x8dct=1 / cqm=0 / deadzone=21,11 / fast_pskip=1 / chroma_qp_offset=-2 / threads=12 / lookahead_threads=2 / sliced_threads=0 / nr=0 / decimate=1 / interlaced=0 / bluray_compat=0 / constrained_intra=0 / bframes=3 / b_pyramid=2 / b_adapt=1 / b_bias=0 / direct=1 / weightb=1 / open_gop=0 / weightp=2 / keyint=240 / keyint_min=24 / scenecut=40 / intra_refresh=0 / rc_lookahead=40 / rc=abr / mbtree=1 / bitrate=3500 / ratetol=1.0 / qcomp=0.60 / qpmin=0 / qpmax=69 / qpstep=4 / vbv_maxrate=62500 / vbv_bufsize=78125 / nal_hrd=none / filler=0 / ip_ratio=1.40 / aq=1:1.00
    Default                     : Yes
    Forced                      : No
    Color range                 : Limited
    Color primaries             : BT.709
    Transfer characteristics    : BT.709
    Matrix coefficients         : BT.709
    Statistics Tags Issue       : mkvmerge v10.0.0 ('To Drown In You') 64bit 2017-08-25 15:43:24 / mkvmerge v10.0.0 ('To Drown In You') 64bit 2017-08-25 15:43:24 / UTC 2017-08-24T23:43:39Z
    FromStats_BitRate           : 3459228
    FromStats_Duration          : 01:46:08.863000000
    FromStats_FrameCount        : 152700
    FromStats_StreamSize        : 2753919386

    Audio #1
    ID                          : 2
    Format                      : AC-3
    Format/Info                 : Audio Coding 3
    Format settings, Endianness : Big
    Codec ID                    : A_AC3
    Duration                    : 1 h 46 min
    Bit rate mode               : Constant
    Bit rate                    : 384 kb/s
    Channel(s)                  : 6 channels
    Channel positions           : Front: L C R, Side: L R, LFE
    Sampling rate               : 48.0 kHz
    Frame rate                  : 31.250 FPS (1536 spf)
    Bit depth                   : 16 bits
    Compression mode            : Lossy
    Delay relative to video     : -5 ms
    Stream size                 : 292 MiB (9%)
    Title                       : Surround
    Language                    : Spanish
    Service kind                : Complete Main
    Default                     : No
    Forced                      : No
    Statistics Tags Issue       : mkvmerge v10.0.0 ('To Drown In You') 64bit 2017-08-25 15:43:24 / mkvmerge v10.0.0 ('To Drown In You') 64bit 2017-08-25 15:43:24 / UTC 2017-08-24T23:43:39Z
    FromStats_BitRate           : 384000
    FromStats_Duration          : 01:46:08.832000000
    FromStats_FrameCount        : 199026
    FromStats_StreamSize        : 305703936

    Audio #2
    ID                          : 3
    Format                      : AC-3
    Format/Info                 : Audio Coding 3
    Format settings, Endianness : Big
    Codec ID                    : A_AC3
    Duration                    : 1 h 46 min
    Bit rate mode               : Constant
    Bit rate                    : 384 kb/s
    Channel(s)                  : 6 channels
    Channel positions           : Front: L C R, Side: L R, LFE
    Sampling rate               : 48.0 kHz
    Frame rate                  : 31.250 FPS (1536 spf)
    Bit depth                   : 16 bits
    Compression mode            : Lossy
    Delay relative to video     : -5 ms
    Stream size                 : 292 MiB (9%)
    Title                       : Surround
    Language                    : English
    Service kind                : Complete Main
    Default                     : Yes
    Forced                      : No
    Statistics Tags Issue       : mkvmerge v10.0.0 ('To Drown In You') 64bit 2017-08-25 15:43:24 / mkvmerge v10.0.0 ('To Drown In You') 64bit 2017-08-25 15:43:24 / UTC 2017-08-24T23:43:39Z
    FromStats_BitRate           : 384000
    FromStats_Duration          : 01:46:08.832000000
    FromStats_FrameCount        : 199026
    FromStats_StreamSize        : 305703936

    Text #1
    ID                          : 4
    Format                      : UTF-8
    Codec ID                    : S_TEXT/UTF8
    Codec ID/Info               : UTF-8 Plain Text
    Language                    : Spanish
    Default                     : Yes
    Forced                      : No
    Statistics Tags Issue       : mkvmerge v10.0.0 ('To Drown In You') 64bit 2017-08-25 15:43:24 / mkvmerge v10.0.0 ('To Drown In You') 64bit 2017-08-25 15:43:24 / UTC 2017-08-24T23:43:39Z
    FromStats_BitRate           : 45
    FromStats_Duration          : 01:40:24.843000000
    FromStats_FrameCount        : 1092
    FromStats_StreamSize        : 34396

    Text #2
    ID                          : 5
    Format                      : UTF-8
    Codec ID                    : S_TEXT/UTF8
    Codec ID/Info               : UTF-8 Plain Text
    Language                    : English
    Default                     : No
    Forced                      : No
    Statistics Tags Issue       : mkvmerge v10.0.0 ('To Drown In You') 64bit 2017-08-25 15:43:24 / mkvmerge v10.0.0 ('To Drown In You') 64bit 2017-08-25 15:43:24 / UTC 2017-08-24T23:43:39Z
    FromStats_BitRate           : 75
    FromStats_Duration          : 01:42:09.951000000
    FromStats_FrameCount        : 1413
    FromStats_StreamSize        : 57649

  • Peso: 3.14 GB

Sinopsis

Philip es un joven huérfano que no puede evitar enamorarse de su hermosa prima Rachel. Mientras intenta negarlo y cubrir la verdad, empieza a sospechar que en realidad ella es la culpable de la muerte de Ambrose, otro primo común de ambos.

Ficha técnica

  • Titulo original: My Cousin Rachel
  • Fecha de lanzamiento: 08-06-2017 (United States of America)
  • Director: Roger Michell
  • Género: Drama, Romance
  • Puntuación: 0.0 0 votos
  • Duración:
    1h 46m

Imágenes, Capturas de la película

Video trailer de la película

Enlaces de descarga

Descargar Mi prima Rachel (2017) 1080p Latino
Descargar

dpeliculas

Aportes de DPeliculasHDmega la pass es:dpeliculashdmega.org Aportes de CinemaniaHD la pass es:cinemaniahdd.com
Guardado en : Drama , Romance

PelícuDelas relacionadas

Comentarios 5
  • Evert Enrique - 03 septiembre, 2017

    Gracias ….¿Saldrá en versión gris?

    • dpelis

      Administrador
      - 03 septiembre, 2017

      no estimado

  • Jonna - 30 agosto, 2017

    Esperándola en Plateada. Gracias : )

  • Jairo - 25 agosto, 2017

    Buenas, disculpen subiran las 2 peliculas de 300?

    • dpelis

      Administrador
      - 28 agosto, 2017

      si estimado mas adelante