Mercancia peligrosa (2016) Full 1080p Latino

1.234 vistas
1 estrella2 estrellas3 estrellas4 estrellas5 estrellas (Ninguna valoración todavía)
Cargando…

Información de Mercancia peligrosa (2016) Full 1080p Latino

Datos de la película

  • Calidad: Full 1080p
  • Audio: Español Latino AC3 2.0 DVD - Ingles DTS 5.1 BLURAY
  • Subtitulos: Español Latino PGS - Ingles PGS
  • Resolución: 1920x1080p
  • Formato: MKV
  • Codec: H.264
  • Encoder: Dpelis
  • Mediainfo: Ver Ver
  • Precious cargo 2016 Full 1080p Latino.mkv
    Format                      : Matroska
    Format version              : Version 4 / Version 2
    File size                   : 5.27 GiB
    Duration                    : 1 h 29 min
    Overall bit rate            : 8 380 kb/s
    Movie name                  : DPeliculasHDMega.ORG
    Encoded date                : UTC 2017-06-18 18:24:27 / UTC 2017-06-12T03:40:41Z
    Writing application         : mkvmerge v10.0.0 ('To Drown In You') 64bit
    Writing library             : libebml v1.3.4 + libmatroska v1.4.5 / Lavf57.7.2

    Video
    ID                          : 1
    Format                      : AVC
    Format/Info                 : Advanced Video Codec
    Format profile              : [email protected]
    Format settings, CABAC      : Yes
    Format settings, ReFrames   : 4 frames
    Codec ID                    : V_MPEG4/ISO/AVC
    Duration                    : 1 h 29 min
    Bit rate                    : 6 480 kb/s
    Width                       : 1 920 pixels
    Height                      : 1 080 pixels
    Display aspect ratio        : 16:9
    Frame rate mode             : Constant
    Frame rate                  : 23.976 (24000/1001) FPS
    Color space                 : YUV
    Chroma subsampling          : 4:2:0
    Bit depth                   : 8 bits
    Scan type                   : Progressive
    Bits/(Pixel*Frame)          : 0.130
    Stream size                 : 4.07 GiB (77%)
    Writing library             : x264 core 148 r2708 86b7198
    Encoding settings           : cabac=1 / ref=4 / deblock=1:0:0 / analyse=0x3:0x133 / me=esa / subme=10 / psy=1 / psy_rd=1.00:0.00 / mixed_ref=1 / me_range=24 / chroma_me=1 / trellis=2 / 8x8dct=1 / cqm=0 / deadzone=21,11 / fast_pskip=1 / chroma_qp_offset=-2 / threads=12 / lookahead_threads=2 / sliced_threads=0 / nr=0 / decimate=1 / interlaced=0 / bluray_compat=0 / constrained_intra=0 / bframes=8 / b_pyramid=2 / b_adapt=2 / b_bias=0 / direct=3 / weightb=1 / open_gop=0 / weightp=2 / keyint=240 / keyint_min=24 / scenecut=40 / intra_refresh=0 / rc_lookahead=60 / rc=crf / mbtree=1 / crf=20.0 / qcomp=0.60 / qpmin=0 / qpmax=69 / qpstep=4 / vbv_maxrate=62500 / vbv_bufsize=78125 / crf_max=0.0 / nal_hrd=none / filler=0 / ip_ratio=1.40 / aq=1:1.00
    Default                     : Yes
    Forced                      : No
    Color range                 : Limited
    Color primaries             : BT.709
    Transfer characteristics    : BT.709
    Matrix coefficients         : BT.709
    Statistics Tags Issue       : mkvmerge v10.0.0 ('To Drown In You') 64bit 2017-06-18 18:24:27 / mkvmerge v10.0.0 ('To Drown In You') 64bit 2017-06-18 18:24:27 / UTC 2017-06-12T03:40:41Z
    FromStats_BitRate           : 6616464
    FromStats_Duration          : 01:29:56.391000000
    FromStats_FrameCount        : 129384
    FromStats_StreamSize        : 4463128772

    Audio #1
    ID                          : 2
    Format                      : AC-3
    Format/Info                 : Audio Coding 3
    Format settings, Endianness : Big
    Codec ID                    : A_AC3
    Duration                    : 1 h 29 min
    Bit rate mode               : Constant
    Bit rate                    : 224 kb/s
    Channel(s)                  : 2 channels
    Channel positions           : Front: L R
    Sampling rate               : 48.0 kHz
    Frame rate                  : 31.250 FPS (1536 spf)
    Bit depth                   : 16 bits
    Compression mode            : Lossy
    Delay relative to video     : -5 ms
    Stream size                 : 144 MiB (3%)
    Title                       : Stereo
    Language                    : Spanish
    Service kind                : Complete Main
    Default                     : Yes
    Forced                      : No
    Statistics Tags Issue       : mkvmerge v10.0.0 ('To Drown In You') 64bit 2017-06-18 18:24:27 / mkvmerge v10.0.0 ('To Drown In You') 64bit 2017-06-18 18:24:27 / UTC 2017-06-12T03:40:41Z
    FromStats_BitRate           : 224000
    FromStats_Duration          : 01:29:57.856000000
    FromStats_FrameCount        : 168683
    FromStats_StreamSize        : 151139968

    Audio #2
    ID                          : 3
    Format                      : DTS
    Format/Info                 : Digital Theater Systems
    Mode                        : 16
    Format settings, Endianness : Big
    Codec ID                    : A_DTS
    Duration                    : 1 h 29 min
    Bit rate mode               : Constant
    Bit rate                    : 1 509 kb/s
    Channel(s)                  : 6 channels
    Channel positions           : Front: L C R, Side: L R, LFE
    Sampling rate               : 48.0 kHz
    Frame rate                  : 93.750 FPS (512 spf)
    Bit depth                   : 24 bits
    Compression mode            : Lossy
    Stream size                 : 971 MiB (18%)
    Title                       : Surround
    Language                    : English
    Default                     : No
    Forced                      : No
    Statistics Tags Issue       : mkvmerge v10.0.0 ('To Drown In You') 64bit 2017-06-18 18:24:27 / mkvmerge v10.0.0 ('To Drown In You') 64bit 2017-06-18 18:24:27 / UTC 2017-06-12T03:40:41Z
    FromStats_BitRate           : 1508999
    FromStats_Duration          : 01:29:56.427000000
    FromStats_FrameCount        : 505915
    FromStats_StreamSize        : 1017900980

    Text #1
    ID                          : 4
    Format                      : PGS
    Muxing mode                 : zlib
    Codec ID                    : S_HDMV/PGS
    Codec ID/Info               : Picture based subtitle format used on BDs/HD-DVDs
    Language                    : Spanish
    Default                     : No
    Forced                      : No
    Statistics Tags Issue       : mkvmerge v10.0.0 ('To Drown In You') 64bit 2017-06-18 18:24:27 / mkvmerge v10.0.0 ('To Drown In You') 64bit 2017-06-18 18:24:27 / UTC 2017-06-12T03:40:41Z
    FromStats_BitRate           : 15048
    FromStats_Duration          : 01:27:53.602000000
    FromStats_FrameCount        : 2113
    FromStats_StreamSize        : 9920198

    Text #2
    ID                          : 5
    Format                      : PGS
    Muxing mode                 : zlib
    Codec ID                    : S_HDMV/PGS
    Codec ID/Info               : Picture based subtitle format used on BDs/HD-DVDs
    Language                    : English
    Default                     : No
    Forced                      : No
    Statistics Tags Issue       : mkvmerge v10.0.0 ('To Drown In You') 64bit 2017-06-18 18:24:27 / mkvmerge v10.0.0 ('To Drown In You') 64bit 2017-06-18 18:24:27 / UTC 2017-06-12T03:40:41Z
    FromStats_BitRate           : 15110
    FromStats_Duration          : 01:27:53.602000000
    FromStats_FrameCount        : 2114
    FromStats_StreamSize        : 9961037

    Menu
    00:00:00.000                : :Chapter 1
    00:08:58.621                : :Chapter 2
    00:12:51.938                : :Chapter 3
    00:16:55.848                : :Chapter 4
    00:25:43.208                : :Chapter 5
    00:32:43.128                : :Chapter 6
    00:36:33.900                : :Chapter 7
    00:42:13.197                : :Chapter 8
    00:46:02.551                : :Chapter 9
    00:52:33.734                : :Chapter 10
    00:58:46.690                : :Chapter 11
    01:02:41.466                : :Chapter 12
    01:06:36.576                : :Chapter 13
    01:08:36.696                : :Chapter 14
    01:12:46.904                : :Chapter 15
    01:21:35.057                : :Chapter 16
    01:29:56.182                : :Chapter 17

  • Peso: 5.27 GB

Sinopsis

Descargar Gratis Pelicula de Bruce Willis que protagoniza en Mercancia Peligrosa.Tras un golpe fallido, el gánster Eddie (Bruce Willis), comienza la búsqueda de la seductora ladrona Karen (Claire Forlani), que le ha fallado. Para ganarse otra vez la confianza de Eddie, Karen recurre a su ex amante y experto ladrón Jack (Mark-Paul Gosselaar).

Ficha técnica

Imágenes, Capturas de la película

Video trailer de la película

Enlaces de descarga

Descargar Mercancia peligrosa (2016) Full 1080p Latino
Descargar

dpeliculas

Aportes de DPeliculasHDmega la pass es:dpeliculashdmega.org Aportes de CinemaniaHD la pass es:cinemaniahdd.com

PelícuDelas relacionadas

  • Poesía sin fin (2016) Full Latino

    2016
    Poesía sin fin (2016) Full Latino

    0.0 0h 0m 2016

    Descargar gratis Poesía sin fin (2016) Full Latino. A traves de la lente autobiográfica de Alejandro...

    Director: Alejandro Jodorowsky

    Género: Drama

    Actores: Pamela Flores

  • El fugitivo (1993) Full 1080p Latino

    1993
    El fugitivo (1993) Full 1080p Latino

    5.0 2h 13m 1993

    El doctor Richard Kimble es un prestigioso cirujano de Chicago con una vida prácticamente perfecta:...

    Director: Andrew Davis

    Género: Acción

    Actores: Turk Muller

  • Dragon Ball Super (2015) Full 1080p Latino

    2015
    Dragon Ball Super (2015) Full 1080p Latino

    4.1 0h 24m 2015

    Si eres un seguidor de la serie Dragon ball super latino, entonces ahora puedes disfrutar de esta maravillosa...

    Director: Akira Toriyama

    Género: Anime

    Actores: Naoki Tatsuta

  • El último virrey de la India (2017) 1080p Latino

    2017
    El último virrey de la India (2017) 1080p Latino

    0.0 1h 47m 2017

    En 1947, Lord Mountbatten (Hugh Bonneville), el bisnieto de la reina Victoria, asume su posición como...

    Director: San Davey

    Género: Drama

    Actores: Trishaan

Comentarios 0