Advertise here

Melanie: The Girl with All the Gifts (2016) 1080p Latino

1.037 vistas
1 estrella2 estrellas3 estrellas4 estrellas5 estrellas (Ninguna valoración todavía)
Cargando…

Información de Melanie: The Girl with All the Gifts (2016) 1080p Latino

Datos de la película

  • Calidad: 1080p
  • Audio: Español Latino AC3 5.1 BLURAY - Ingles AC3 5.1 BLURAY
  • Subtitulos: Español Latino SRT
  • Resolución: 1920X956
  • Formato: MKV
  • Codec: H.264
  • Encoder: Dpelis
  • Mediainfo: Clic para Mostrar Datos Ver
  • Format                                   : Matroska
    Format version                           : Version 4 / Version 2
    File size                                : 3.30 GiB
    Duration                                 : 1 h 50 min
    Overall bit rate                         : 4 263 kb/s
    Movie name                               : dpeliculashdmega.org
    Encoded date                             : UTC 2017-11-08 22:21:53 / UTC 2017-11-08T18:23:00Z
    Writing application                      : mkvmerge v15.0.0 ('Duel with the Devil') 64-bit
    Writing library                          : libebml v1.3.5 + libmatroska v1.4.5 / Lavf57.7.2

    Video
    ID                                       : 1
    Format                                   : AVC
    Format/Info                              : Advanced Video Codec
    Format profile                           : [email protected]
    Format settings                          : CABAC / 4 Ref Frames
    Format settings, CABAC                   : Yes
    Format settings, RefFrames               : 4 frames
    Codec ID                                 : V_MPEG4/ISO/AVC
    Duration                                 : 1 h 50 min
    Bit rate                                 : 3 500 kb/s
    Width                                    : 1 920 pixels
    Height                                   : 956 pixels
    Display aspect ratio                     : 2.008
    Frame rate mode                          : Constant
    Frame rate                               : 23.976 (24000/1001) FPS
    Color space                              : YUV
    Chroma subsampling                       : 4:2:0
    Bit depth                                : 8 bits
    Scan type                                : Progressive
    Bits/(Pixel*Frame)                       : 0.080
    Stream size                              : 2.59 GiB (78%)
    Title                                    : Melanie The Girl with All the Gifts (2016) 1080p Latino
    Writing library                          : x264 core 148 r2708 86b7198
    Encoding settings                        : cabac=1 / ref=4 / deblock=1:0:0 / analyse=0x3:0x113 / me=umh / subme=8 / psy=1 / psy_rd=1.00:0.00 / mixed_ref=1 / me_range=16 / chroma_me=1 / trellis=1 / 8x8dct=1 / cqm=0 / deadzone=21,11 / fast_pskip=1 / chroma_qp_offset=-2 / threads=30 / lookahead_threads=5 / sliced_threads=0 / nr=0 / decimate=1 / interlaced=0 / bluray_compat=0 / constrained_intra=0 / bframes=3 / b_pyramid=2 / b_adapt=2 / b_bias=0 / direct=3 / weightb=1 / open_gop=0 / weightp=2 / keyint=240 / keyint_min=24 / scenecut=40 / intra_refresh=0 / rc_lookahead=50 / rc=abr / mbtree=1 / bitrate=3500 / ratetol=1.0 / qcomp=0.60 / qpmin=0 / qpmax=69 / qpstep=4 / vbv_maxrate=62500 / vbv_bufsize=78125 / nal_hrd=none / filler=0 / ip_ratio=1.40 / aq=1:1.00
    Language                                 : English
    Default                                  : Yes
    Forced                                   : No
    Color range                              : Limited
    Color primaries                          : BT.709
    Transfer characteristics                 : BT.709
    Matrix coefficients                      : BT.709
    Statistics Tags Issue                    : mkvmerge v15.0.0 ('Duel with the Devil') 64-bit 2017-11-08 22:21:53 / mkvmerge v15.0.0 ('Duel with the Devil') 64-bit 2017-11-08 22:21:53 / UTC 2017-11-08T18:23:00Z
    FromStats_BitRate                        : 3428903
    FromStats_Duration                       : 01:50:55.482000000
    FromStats_FrameCount                     : 159572
    FromStats_StreamSize                     : 2852625819

    Audio #1
    ID                                       : 2
    Format                                   : AC-3
    Format/Info                              : Audio Coding 3
    Format settings, Endianness              : Big
    Codec ID                                 : A_AC3
    Duration                                 : 1 h 50 min
    Bit rate mode                            : Constant
    Bit rate                                 : 448 kb/s
    Channel(s)                               : 6 channels
    Channel positions                        : Front: L C R, Side: L R, LFE
    Sampling rate                            : 48.0 kHz
    Frame rate                               : 31.250 FPS (1536 SPF)
    Bit depth                                : 16 bits
    Compression mode                         : Lossy
    Delay relative to video                  : -5 ms
    Stream size                              : 355 MiB (11%)
    Title                                    : Latino-AC3
    Language                                 : Spanish
    Service kind                             : Complete Main
    Default                                  : Yes
    Forced                                   : No
    Statistics Tags Issue                    : mkvmerge v15.0.0 ('Duel with the Devil') 64-bit 2017-11-08 22:21:53 / mkvmerge v15.0.0 ('Duel with the Devil') 64-bit 2017-11-08 22:21:53 / UTC 2017-11-08T18:23:00Z
    FromStats_BitRate                        : 448000
    FromStats_Duration                       : 01:50:55.520000000
    FromStats_FrameCount                     : 207985
    FromStats_StreamSize                     : 372709120

    Audio #2
    ID                                       : 3
    Format                                   : AC-3
    Format/Info                              : Audio Coding 3
    Format settings, Endianness              : Big
    Codec ID                                 : A_AC3
    Duration                                 : 1 h 50 min
    Bit rate mode                            : Constant
    Bit rate                                 : 384 kb/s
    Channel(s)                               : 6 channels
    Channel positions                        : Front: L C R, Side: L R, LFE
    Sampling rate                            : 48.0 kHz
    Frame rate                               : 31.250 FPS (1536 SPF)
    Bit depth                                : 16 bits
    Compression mode                         : Lossy
    Delay relative to video                  : -5 ms
    Stream size                              : 305 MiB (9%)
    Title                                    : Ingles-AC3
    Language                                 : English
    Service kind                             : Complete Main
    Default                                  : No
    Forced                                   : No
    Statistics Tags Issue                    : mkvmerge v15.0.0 ('Duel with the Devil') 64-bit 2017-11-08 22:21:53 / mkvmerge v15.0.0 ('Duel with the Devil') 64-bit 2017-11-08 22:21:53 / UTC 2017-11-08T18:23:00Z
    FromStats_BitRate                        : 384000
    FromStats_Duration                       : 01:50:55.488000000
    FromStats_FrameCount                     : 207984
    FromStats_StreamSize                     : 319463424

    Text
    ID                                       : 4
    Format                                   : UTF-8
    Codec ID                                 : S_TEXT/UTF8
    Codec ID/Info                            : UTF-8 Plain Text
    Title                                    : SRT
    Language                                 : Spanish
    Default                                  : No
    Forced                                   : No
    Statistics Tags Issue                    : mkvmerge v15.0.0 ('Duel with the Devil') 64-bit 2017-11-08 22:21:53 / mkvmerge v15.0.0 ('Duel with the Devil') 64-bit 2017-11-08 22:21:53 / UTC 2017-11-08T18:23:00Z
    FromStats_BitRate                        : 37
    FromStats_Duration                       : 01:46:29.542000000
    FromStats_FrameCount                     : 806
    FromStats_StreamSize                     : 29653

    Menu
    00:00:00.000                             : :Chapter 1
    00:09:22.437                             : :Chapter 2
    00:17:59.745                             : :Chapter 3
    00:31:10.035                             : :Chapter 4
    00:41:11.761                             : :Chapter 5
    00:48:34.453                             : :Chapter 6
    00:58:39.016                             : :Chapter 7
    01:07:45.770                             : :Chapter 8
    01:18:03.137                             : :Chapter 9
    01:25:42.679                             : :Chapter 10
    01:36:59.814                             : :Chapter 11
    01:45:52.972                             : :Chapter 12

  • Peso: 3.30 GiB

Sinopsis

En un futuro distópico, la sociedad está asediada por una enfermedad contagiosa que convierte a las víctimas en insaciables zombis. La única oportunidad de la humanidad reside en un grupo de niños que son inmunes a los efectos de la pandemia. Los niños están refugiados en una base militar situada en un pueblo perdido de Inglaterra. Allí, los pequeños son estudiados, ya que son capaces de pensar y sentir a pesar de haber sido infectados, mientras los científicos buscan una cura. Una de esas niñas, Melanie, destacará por encima del resto, provocando que el futuro de la raza humana dependa de ella.

Ficha técnica

Video trailer de la película

Enlaces de descarga

Descargar Melanie: The Girl with All the Gifts (2016) 1080p Latino
Descargar

dpeliculas

Aportes de DPeliculasHDmega la pass es:dpeliculashdmega.org Aportes de CinemaniaHD la pass es:cinemaniahdd.com
Guardado en : Drama , Suspense , Terror

Películas relacionadas

  • Imparable (2010) Full 1080p Latino

    2010
    Imparable (2010) Full 1080p Latino

    5.0 1 h 38 min 2010

    El destino cruza las vidas de un veterano ingeniero y la de un joven conductor cuando ambos tengan que...

    Director: Tony Scott

    Género: Acción

    Actores: Toni Saladna

  • Your name (2016) Full 1080p Latino

    2016
    Your name (2016) Full 1080p Latino

    5.0 1 h 46 min 2016

    La película nos presenta a dos jóvenes, Mitsuha y Taki. La primera es una estudiante de instituto que...

    Director: Makoto Shinkai

    Género: Animación

    Actores: Tani Kanon

  • Atrápame si puedes (2002) Full 1080p Latino

    2002
    Atrápame si puedes (2002) Full 1080p Latino

    0.0 2h 20m 2002

    Frank Abagnale Jr. trabajó como médico, abogado y copiloto de una de las grandes líneas aéreas, todo...

    Director: Steven Spielberg

    Género: Crimen

    Actores: William Lauzon

  • Mi Nueva Yo (2017) WEBDL 1080p Latino

    2017
    Mi Nueva Yo (2017) WEBDL 1080p Latino

    0.0 1 h 37 min 2017

    Una madre de dos hijos se acaba de separar y decide iniciar una nueva vida en Los Ángeles. Los acontecimientos...

    Director: Hallie Meyers-Shyer

    Género: Comedia

    Actores: Reid Scott

Comentarios 6
  • rodrigolofonte - 10 noviembre, 2017

    muchas gracias, pero cuando saldra la version plateada?

    • Dpelis2 pelis2

      Autor
      - 10 noviembre, 2017

      en unos dias mas.

  • Marcus - 08 noviembre, 2017

    Tenia entendido q el latino de esta peli es DTS porque ustedes tienen 448 eso es audio del dvd no del bluray 🙁

    • dpelis

      Administrador
      - 08 noviembre, 2017

      es una pelicula en portada negra, no se agrega audios bitrate original, solo se hacen con portadas plateadas

      • Marcus - 08 noviembre, 2017

        entonces colocalo en 640 por fa no le bajes el bitrate a 448 quiero sacarle el jugo a mi parlantes 5.1

        • dpelis

          Administrador
          - 11 noviembre, 2017

          esos solo conversiones plateadas