Me case con un boludo (2016) 1080p Latino

933 vistas
1 estrella2 estrellas3 estrellas4 estrellas5 estrellas (1 votos, promedio: 4,00 de 5)
Cargando…

Información de Me case con un boludo (2016) 1080p Latino

Datos de la película

  • Calidad: 1080p
  • Audio: Español Latino AC3 5.1 BLURAY
  • Subtitulos: Español Latino SRT
  • Resolución: 1920x808p
  • Formato: MKV
  • Codec: H.264
  • Encoder: Dpelis
  • Mediainfo: Ver Ver
  • Me Case con un Boludo 2016) 1080p Latino.mkv
    Format                      : Matroska
    Format version              : Version 4 / Version 2
    File size                   : 2.90 GiB
    Duration                    : 1 h 49 min
    Overall bit rate            : 3 801 kb/s
    Movie name                  : DPeliculasHDMega.ORG
    Encoded date                : UTC 2017-09-13 21:53:37 / UTC 2017-09-13T19:58:58Z
    Writing application         : mkvmerge v10.0.0 ('To Drown In You') 64bit
    Writing library             : libebml v1.3.4 + libmatroska v1.4.5 / Lavf57.7.2

    Video
    ID                          : 1
    Format                      : AVC
    Format/Info                 : Advanced Video Codec
    Format profile              : [email protected]
    Format settings, CABAC      : Yes
    Format settings, RefFrames  : 4 frames
    Codec ID                    : V_MPEG4/ISO/AVC
    Duration                    : 1 h 49 min
    Bit rate                    : 3 500 kb/s
    Width                       : 1 920 pixels
    Height                      : 808 pixels
    Display aspect ratio        : 2.40:1
    Frame rate mode             : Constant
    Frame rate                  : 24.000 FPS
    Color space                 : YUV
    Chroma subsampling          : 4:2:0
    Bit depth                   : 8 bits
    Scan type                   : Progressive
    Bits/(Pixel*Frame)          : 0.094
    Stream size                 : 2.55 GiB (88%)
    Writing library             : x264 core 148 r2708 86b7198
    Encoding settings           : cabac=1 / ref=3 / deblock=1:0:0 / analyse=0x3:0x113 / me=hex / subme=7 / psy=1 / psy_rd=1.00:0.00 / mixed_ref=1 / me_range=16 / chroma_me=1 / trellis=1 / 8x8dct=1 / cqm=0 / deadzone=21,11 / fast_pskip=1 / chroma_qp_offset=-2 / threads=12 / lookahead_threads=2 / sliced_threads=0 / nr=0 / decimate=1 / interlaced=0 / bluray_compat=0 / constrained_intra=0 / bframes=3 / b_pyramid=2 / b_adapt=1 / b_bias=0 / direct=1 / weightb=1 / open_gop=0 / weightp=2 / keyint=240 / keyint_min=24 / scenecut=40 / intra_refresh=0 / rc_lookahead=40 / rc=abr / mbtree=1 / bitrate=3500 / ratetol=1.0 / qcomp=0.60 / qpmin=0 / qpmax=69 / qpstep=4 / vbv_maxrate=62500 / vbv_bufsize=78125 / nal_hrd=none / filler=0 / ip_ratio=1.40 / aq=1:1.00
    Default                     : Yes
    Forced                      : No
    Color range                 : Limited
    Color primaries             : BT.709
    Transfer characteristics    : BT.709
    Matrix coefficients         : BT.709
    Statistics Tags Issue       : mkvmerge v10.0.0 ('To Drown In You') 64bit 2017-09-13 21:53:37 / mkvmerge v10.0.0 ('To Drown In You') 64bit 2017-09-13 21:53:37 / UTC 2017-09-13T19:58:58Z
    FromStats_BitRate           : 3398929
    FromStats_Duration          : 01:49:06.500000000
    FromStats_FrameCount        : 157116
    FromStats_StreamSize        : 2781386448

    Audio
    ID                          : 2
    Format                      : AC-3
    Format/Info                 : Audio Coding 3
    Format settings, Endianness : Big
    Codec ID                    : A_AC3
    Duration                    : 1 h 49 min
    Bit rate mode               : Constant
    Bit rate                    : 384 kb/s
    Channel(s)                  : 6 channels
    Channel positions           : Front: L C R, Side: L R, LFE
    Sampling rate               : 48.0 kHz
    Frame rate                  : 31.250 FPS (1536 SPF)
    Bit depth                   : 16 bits
    Compression mode            : Lossy
    Delay relative to video     : 37 ms
    Stream size                 : 300 MiB (10%)
    Title                       : Surround
    Language                    : Spanish
    Service kind                : Complete Main
    Default                     : Yes
    Forced                      : No
    Statistics Tags Issue       : mkvmerge v10.0.0 ('To Drown In You') 64bit 2017-09-13 21:53:37 / mkvmerge v10.0.0 ('To Drown In You') 64bit 2017-09-13 21:53:37 / UTC 2017-09-13T19:58:58Z
    FromStats_BitRate           : 384000
    FromStats_Duration          : 01:49:06.432000000
    FromStats_FrameCount        : 204576
    FromStats_StreamSize        : 314228736

    Text #1
    ID                          : 3
    Format                      : PGS
    Muxing mode                 : zlib
    Codec ID                    : S_HDMV/PGS
    Codec ID/Info               : Picture based subtitle format used on BDs/HD-DVDs
    Language                    : Spanish
    Default                     : No
    Forced                      : No
    Statistics Tags Issue       : mkvmerge v10.0.0 ('To Drown In You') 64bit 2017-09-13 21:53:37 / mkvmerge v10.0.0 ('To Drown In You') 64bit 2017-09-13 21:53:37 / UTC 2017-09-13T19:58:58Z
    FromStats_BitRate           : 15878
    FromStats_Duration          : 01:48:37.458000000
    FromStats_FrameCount        : 3944
    FromStats_StreamSize        : 12936273

    Text #2
    ID                          : 4
    Format                      : UTF-8
    Codec ID                    : S_TEXT/UTF8
    Codec ID/Info               : UTF-8 Plain Text
    Language                    : Spanish
    Default                     : No
    Forced                      : No
    Statistics Tags Issue       : mkvmerge v10.0.0 ('To Drown In You') 64bit 2017-09-13 21:53:37 / mkvmerge v10.0.0 ('To Drown In You') 64bit 2017-09-13 21:53:37 / UTC 2017-09-13T19:58:58Z
    FromStats_BitRate           : 80
    FromStats_Duration          : 01:48:37.458000000
    FromStats_FrameCount        : 1972
    FromStats_StreamSize        : 65609

    Menu
    00:00:00.000                : :Chapter 1
    00:11:27.250                : :Chapter 2
    00:16:29.875                : :Chapter 3
    00:26:33.708                : :Chapter 4
    00:34:45.625                : :Chapter 5
    00:45:39.083                : :Chapter 6
    00:55:37.542                : :Chapter 7
    01:06:20.625                : :Chapter 8
    01:13:34.708                : :Chapter 9
    01:22:04.500                : :Chapter 10
    01:31:53.792                : :Chapter 11
    01:36:23.375                : :Chapter 12

  • Peso: 2.90 GB

Sinopsis

Florencia, una actriz en ascenso pero que recién comienza su carrera en cine, se termina enamorando de su coprotagonista, un famoso actor de cine. Cuando deciden casarse, Florencia se dará cuenta que en realidad ella se enamoró del personaje y que su esposo es en realidad un auténtico boludo.

Ficha técnica

  • Titulo original: Me casé con un boludo
  • Fecha de lanzamiento: 17-03-2016 (Argentina)
  • Director: Juan Taratuto
  • Género: Comedia, Romance
  • Puntuación: 4.0 1 votos
  • Duración:
    1h 50m

Imágenes, Capturas de la película

Video trailer de la película

Enlaces de descarga

Descargar Me case con un boludo (2016) 1080p Latino
Descargar

dpeliculas

Aportes de DPeliculasHDmega la pass es:dpeliculashdmega.org Aportes de CinemaniaHD la pass es:cinemaniahdd.com
Guardado en : Comedia , Romance

PelícuDelas relacionadas

Comentarios 2
  • seba - 17 septiembre, 2017

    suban mas películas chilenas suben puras argentinas

    • dpelis

      Administrador
      - 17 septiembre, 2017

      se sube las que van salio latino.