McLaren (2017) 1080p Latino

1.075 vistas
1 estrella2 estrellas3 estrellas4 estrellas5 estrellas (Ninguna valoración todavía)
Cargando…

Información de McLaren (2017) 1080p Latino

Datos de la película

  • Calidad: 1080p
  • Audio: Español Latino AC3 2.0 Capturado - Ingles AC3 5.1 BLURAY
  • Subtitulos: Español Latino SRT - Ingles SRT
  • Resolución: 192x800p
  • Formato: MKV
  • Codec: H.264
  • Encoder: Dpelis
  • Mediainfo: Ver Ver
  • Mclaren.2016.1080p.bluray.x264-ghouls-1\Mclaren.2016.1080p.Latino.mkv
    Format                      : Matroska
    Format version              : Version 4 / Version 2
    File size                   : 2.70 GiB
    Duration                    : 1 h 34 min
    Overall bit rate            : 4 107 kb/s
    Movie name                  : DPeliculasHDMega.ORG
    Encoded date                : UTC 2017-06-29 00:45:19 / UTC 2017-06-28T14:59:49Z
    Writing application         : mkvmerge v10.0.0 ('To Drown In You') 64bit
    Writing library             : libebml v1.3.4 + libmatroska v1.4.5 / Lavf57.7.2

    Video
    ID                          : 1
    Format                      : AVC
    Format/Info                 : Advanced Video Codec
    Format profile              : [email protected]
    Format settings, CABAC      : Yes
    Format settings, ReFrames   : 4 frames
    Codec ID                    : V_MPEG4/ISO/AVC
    Duration                    : 1 h 34 min
    Bit rate                    : 3 257 kb/s
    Nominal bit rate            : 3 500 kb/s
    Width                       : 1 920 pixels
    Height                      : 804 pixels
    Display aspect ratio        : 2.40:1
    Frame rate mode             : Constant
    Frame rate                  : 23.976 (24000/1001) FPS
    Color space                 : YUV
    Chroma subsampling          : 4:2:0
    Bit depth                   : 8 bits
    Scan type                   : Progressive
    Bits/(Pixel*Frame)          : 0.088
    Stream size                 : 2.14 GiB (79%)
    Writing library             : x264 core 148 r2708 86b7198
    Encoding settings           : cabac=1 / ref=3 / deblock=1:0:0 / analyse=0x3:0x113 / me=hex / subme=7 / psy=1 / psy_rd=1.00:0.00 / mixed_ref=1 / me_range=16 / chroma_me=1 / trellis=1 / 8x8dct=1 / cqm=0 / deadzone=21,11 / fast_pskip=1 / chroma_qp_offset=-2 / threads=25 / lookahead_threads=4 / sliced_threads=0 / nr=0 / decimate=1 / interlaced=0 / bluray_compat=0 / constrained_intra=0 / bframes=3 / b_pyramid=2 / b_adapt=1 / b_bias=0 / direct=1 / weightb=1 / open_gop=0 / weightp=2 / keyint=240 / keyint_min=24 / scenecut=40 / intra_refresh=0 / rc_lookahead=40 / rc=abr / mbtree=1 / bitrate=3500 / ratetol=1.0 / qcomp=0.60 / qpmin=0 / qpmax=69 / qpstep=4 / vbv_maxrate=62500 / vbv_bufsize=78125 / nal_hrd=none / filler=0 / ip_ratio=1.40 / aq=1:1.00
    Default                     : Yes
    Forced                      : No
    Color range                 : Limited
    Color primaries             : BT.709
    Transfer characteristics    : BT.709
    Matrix coefficients         : BT.709
    Statistics Tags Issue       : mkvmerge v10.0.0 ('To Drown In You') 64bit 2017-06-29 00:45:19 / mkvmerge v10.0.0 ('To Drown In You') 64bit 2017-06-29 00:45:19 / UTC 2017-06-28T14:59:49Z
    FromStats_BitRate           : 3336631
    FromStats_Duration          : 01:34:02.012000000
    FromStats_FrameCount        : 135273
    FromStats_StreamSize        : 2353164494

    Audio #1
    ID                          : 2
    Format                      : AC-3
    Format/Info                 : Audio Coding 3
    Format settings, Endianness : Big
    Codec ID                    : A_AC3
    Duration                    : 1 h 34 min
    Bit rate mode               : Constant
    Bit rate                    : 384 kb/s
    Channel(s)                  : 2 channels
    Channel positions           : Front: L R
    Sampling rate               : 48.0 kHz
    Frame rate                  : 31.250 FPS (1536 spf)
    Bit depth                   : 16 bits
    Compression mode            : Lossy
    Delay relative to video     : -5 ms
    Stream size                 : 258 MiB (9%)
    Language                    : Spanish
    Service kind                : Complete Main
    Default                     : Yes
    Forced                      : No
    Statistics Tags Issue       : mkvmerge v10.0.0 ('To Drown In You') 64bit 2017-06-29 00:45:19 / mkvmerge v10.0.0 ('To Drown In You') 64bit 2017-06-29 00:45:19 / UTC 2017-06-28T14:59:49Z
    FromStats_BitRate           : 384000
    FromStats_Duration          : 01:34:02.208000000
    FromStats_FrameCount        : 176319
    FromStats_StreamSize        : 270825984

    Audio #2
    ID                          : 3
    Format                      : AC-3
    Format/Info                 : Audio Coding 3
    Format settings, Endianness : Big
    Codec ID                    : A_AC3
    Duration                    : 1 h 34 min
    Bit rate mode               : Constant
    Bit rate                    : 384 kb/s
    Channel(s)                  : 6 channels
    Channel positions           : Front: L C R, Side: L R, LFE
    Sampling rate               : 48.0 kHz
    Frame rate                  : 31.250 FPS (1536 spf)
    Bit depth                   : 16 bits
    Compression mode            : Lossy
    Delay relative to video     : -5 ms
    Stream size                 : 258 MiB (9%)
    Title                       : Surround
    Language                    : English
    Service kind                : Complete Main
    Default                     : No
    Forced                      : No
    Statistics Tags Issue       : mkvmerge v10.0.0 ('To Drown In You') 64bit 2017-06-29 00:45:19 / mkvmerge v10.0.0 ('To Drown In You') 64bit 2017-06-29 00:45:19 / UTC 2017-06-28T14:59:49Z
    FromStats_BitRate           : 384000
    FromStats_Duration          : 01:34:01.984000000
    FromStats_FrameCount        : 176312
    FromStats_StreamSize        : 270815232

    Text #1
    ID                          : 4
    Format                      : UTF-8
    Codec ID                    : S_TEXT/UTF8
    Codec ID/Info               : UTF-8 Plain Text
    Language                    : Spanish
    Default                     : Yes
    Forced                      : No
    Statistics Tags Issue       : mkvmerge v10.0.0 ('To Drown In You') 64bit 2017-06-29 00:45:19 / mkvmerge v10.0.0 ('To Drown In You') 64bit 2017-06-29 00:45:19 / UTC 2017-06-28T14:59:49Z
    FromStats_BitRate           : 82
    FromStats_Duration          : 01:32:00.848000000
    FromStats_FrameCount        : 1147
    FromStats_StreamSize        : 56928

    Text #2
    ID                          : 5
    Format                      : UTF-8
    Codec ID                    : S_TEXT/UTF8
    Codec ID/Info               : UTF-8 Plain Text
    Language                    : English
    Default                     : No
    Forced                      : No
    Statistics Tags Issue       : mkvmerge v10.0.0 ('To Drown In You') 64bit 2017-06-29 00:45:19 / mkvmerge v10.0.0 ('To Drown In You') 64bit 2017-06-29 00:45:19 / UTC 2017-06-28T14:59:49Z
    FromStats_BitRate           : 84
    FromStats_Duration          : 01:27:50.964000000
    FromStats_FrameCount        : 1152
    FromStats_StreamSize        : 55563

    Menu
    00:00:00.000                : :00:00:00.000
    00:07:09.429                : :00:07:09.429
    00:15:21.671                : :00:15:21.671
    00:22:11.413                : :00:22:11.413
    00:30:06.179                : :00:30:06.138
    00:38:14.375                : :00:38:14.375
    00:45:18.674                : :00:45:18.674
    00:52:18.969                : :00:52:18.969
    00:59:14.551                : :00:59:14.551
    01:08:12.839                : :01:08:12.839
    01:15:19.098                : :01:15:19.098
    01:22:36.201                : :01:22:36.076

  • Peso: 2.70 GB

Sinopsis

La historia de Bruce McLaren, el neozelandes fundador del equipo McLaren Motor Racing team. Un hombre que le mostro al mundo que alguien de raices humildes puede alcanzar la elite del automovilismo deportivo y triunfar.

Ficha técnica

Imágenes, Capturas de la película

Video trailer de la película

Enlaces de descarga

Descargar McLaren (2017) 1080p Latino
Descargar

dpeliculas

Aportes de DPeliculasHDmega la pass es:dpeliculashdmega.org Aportes de CinemaniaHD la pass es:cinemaniahdd.com
Guardado en : Documental

PelícuDelas relacionadas

  • Icarus (2017) Webdl 1080p Latino

    2017
    Icarus (2017) Webdl 1080p Latino

    5.0 2h1m 2017

    Mientras investiga el mundo furtivo del dopaje ilegal en los deportes, el director Bryan Fogel se conecta...

    Director: Bryan Fogel

    Género: Documental

    Actores: Nikita Kamaev

  • Chasing Coral (2017) Webdl 1080p Latino

    2017
    Chasing Coral (2017) Webdl 1080p Latino

    4.0 1h 24m 2017

    Los arrecifes de coral son el vivero para toda la vida en los océanos, un ecosistema notable que nos...

    Director: Jeff Orlowski

    Género: Documental

    Actores: Zackery Rago

  • Antes de la Inundación (2016) WEBDL 1080p Latino

    2016
    Antes de la Inundación (2016) WEBDL 1080p Latino

    1.0 1h 36m 2016

    Una mirada a los efectos del cambio climático en nuestro entorno y cómo la sociedad puede prevenirlos,...

    Director: Fisher Stevens

    Género: Documental

    Actores: Tommy E. Remengesau Jr.

Comentarios 0