Advertise here

Max 2: White House Hero (2017) 1080p Latino

1.230 vistas
1 estrella2 estrellas3 estrellas4 estrellas5 estrellas (1 votos, promedio: 5,00 de 5)
Cargando…

Información de Max 2: White House Hero (2017) 1080p Latino

Datos de la película

  • Calidad: Full 1080p
  • Audio: Español Latino AC3 5.1 BLURAY - Ingles AC3 5.1 BLURAY
  • Subtitulos: Español Latino PGS - Ingles PGS
  • Resolución: 1920x1080p
  • Formato: MKV
  • Codec: H.264
  • Encoder: Dpelis
  • Mediainfo: Clic para Mostrar Datos Ver
  • Max 2 White House Hero 2017 1080p Latino.mkv
    Format                      : Matroska
    Format version              : Version 4 / Version 2
    File size                   : 2.46 GiB
    Duration                    : 1 h 25 min
    Overall bit rate            : 4 125 kb/s
    Encoded date                : UTC 2017-05-10 03:13:30 / UTC 2017-05-10T01:50:19Z
    Writing application         : mkvmerge v10.0.0 ('To Drown In You') 64bit
    Writing library             : libebml v1.3.4 + libmatroska v1.4.5 / Lavf57.7.2

    Video
    ID                          : 1
    Format                      : AVC
    Format/Info                 : Advanced Video Codec
    Format profile              : [email protected]
    Format settings, CABAC      : Yes
    Format settings, ReFrames   : 4 frames
    Codec ID                    : V_MPEG4/ISO/AVC
    Duration                    : 1 h 25 min
    Bit rate                    : 3 275 kb/s
    Nominal bit rate            : 3 500 kb/s
    Width                       : 1 920 pixels
    Height                      : 1 080 pixels
    Display aspect ratio        : 16:9
    Frame rate mode             : Constant
    Frame rate                  : 23.976 (24000/1001) FPS
    Color space                 : YUV
    Chroma subsampling          : 4:2:0
    Bit depth                   : 8 bits
    Scan type                   : Progressive
    Bits/(Pixel*Frame)          : 0.066
    Stream size                 : 1.95 GiB (79%)
    Writing library             : x264 core 148 r2708 86b7198
    Encoding settings           : cabac=1 / ref=3 / deblock=1:0:0 / analyse=0x3:0x113 / me=hex / subme=7 / psy=1 / psy_rd=1.00:0.00 / mixed_ref=1 / me_range=16 / chroma_me=1 / trellis=1 / 8x8dct=1 / cqm=0 / deadzone=21,11 / fast_pskip=1 / chroma_qp_offset=-2 / threads=12 / lookahead_threads=2 / sliced_threads=0 / nr=0 / decimate=1 / interlaced=0 / bluray_compat=0 / constrained_intra=0 / bframes=3 / b_pyramid=2 / b_adapt=1 / b_bias=0 / direct=1 / weightb=1 / open_gop=0 / weightp=2 / keyint=240 / keyint_min=24 / scenecut=40 / intra_refresh=0 / rc_lookahead=40 / rc=abr / mbtree=1 / bitrate=3500 / ratetol=1.0 / qcomp=0.60 / qpmin=0 / qpmax=69 / qpstep=4 / vbv_maxrate=62500 / vbv_bufsize=78125 / nal_hrd=none / filler=0 / ip_ratio=1.40 / aq=1:1.00
    Default                     : Yes
    Forced                      : No
    Color range                 : Limited
    Color primaries             : BT.709
    Transfer characteristics    : BT.709
    Matrix coefficients         : BT.709
    Statistics Tags Issue       : mkvmerge v10.0.0 ('To Drown In You') 64bit 2017-05-10 03:13:30 / mkvmerge v10.0.0 ('To Drown In You') 64bit 2017-05-10 03:13:30 / UTC 2017-05-10T01:50:19Z
    FromStats_BitRate           : 3355174
    FromStats_Duration          : 01:25:26.038000000
    FromStats_FrameCount        : 122902
    FromStats_StreamSize        : 2149844047

    Audio #1
    ID                          : 2
    Format                      : AC-3
    Format/Info                 : Audio Coding 3
    Format settings, Endianness : Big
    Codec ID                    : A_AC3
    Duration                    : 1 h 25 min
    Bit rate mode               : Constant
    Bit rate                    : 384 kb/s
    Channel(s)                  : 6 channels
    Channel positions           : Front: L C R, Side: L R, LFE
    Sampling rate               : 48.0 kHz
    Frame rate                  : 31.250 FPS (1536 spf)
    Bit depth                   : 16 bits
    Compression mode            : Lossy
    Delay relative to video     : -5 ms
    Stream size                 : 235 MiB (9%)
    Title                       : Surround
    Language                    : Spanish
    Service kind                : Complete Main
    Default                     : Yes
    Forced                      : No
    Statistics Tags Issue       : mkvmerge v10.0.0 ('To Drown In You') 64bit 2017-05-10 03:13:30 / mkvmerge v10.0.0 ('To Drown In You') 64bit 2017-05-10 03:13:30 / UTC 2017-05-10T01:50:19Z
    FromStats_BitRate           : 384000
    FromStats_Duration          : 01:25:26.048000000
    FromStats_FrameCount        : 160189
    FromStats_StreamSize        : 246050304

    Audio #2
    ID                          : 3
    Format                      : AC-3
    Format/Info                 : Audio Coding 3
    Format settings, Endianness : Big
    Codec ID                    : A_AC3
    Duration                    : 1 h 25 min
    Bit rate mode               : Constant
    Bit rate                    : 384 kb/s
    Channel(s)                  : 6 channels
    Channel positions           : Front: L C R, Side: L R, LFE
    Sampling rate               : 48.0 kHz
    Frame rate                  : 31.250 FPS (1536 spf)
    Bit depth                   : 16 bits
    Compression mode            : Lossy
    Delay relative to video     : -5 ms
    Stream size                 : 235 MiB (9%)
    Title                       : Surround
    Language                    : English
    Service kind                : Complete Main
    Default                     : No
    Forced                      : No
    Statistics Tags Issue       : mkvmerge v10.0.0 ('To Drown In You') 64bit 2017-05-10 03:13:30 / mkvmerge v10.0.0 ('To Drown In You') 64bit 2017-05-10 03:13:30 / UTC 2017-05-10T01:50:19Z
    FromStats_BitRate           : 384000
    FromStats_Duration          : 01:25:26.048000000
    FromStats_FrameCount        : 160189
    FromStats_StreamSize        : 246050304

    Text #1
    ID                          : 4
    Format                      : UTF-8
    Codec ID                    : S_TEXT/UTF8
    Codec ID/Info               : UTF-8 Plain Text
    Language                    : English
    Default                     : Yes
    Forced                      : No
    Statistics Tags Issue       : mkvmerge v10.0.0 ('To Drown In You') 64bit 2017-05-10 03:13:30 / mkvmerge v10.0.0 ('To Drown In You') 64bit 2017-05-10 03:13:30 / UTC 2017-05-10T01:50:19Z
    FromStats_BitRate           : 77
    FromStats_Duration          : 01:24:27.321000000
    FromStats_FrameCount        : 1282
    FromStats_StreamSize        : 49201

    Text #2
    ID                          : 5
    Format                      : UTF-8
    Codec ID                    : S_TEXT/UTF8
    Codec ID/Info               : UTF-8 Plain Text
    Language                    : Spanish
    Default                     : No
    Forced                      : No
    Statistics Tags Issue       : mkvmerge v10.0.0 ('To Drown In You') 64bit 2017-05-10 03:13:30 / mkvmerge v10.0.0 ('To Drown In You') 64bit 2017-05-10 03:13:30 / UTC 2017-05-10T01:50:19Z
    FromStats_BitRate           : 91
    FromStats_Duration          : 00:00:10.100000000
    FromStats_FrameCount        : 1
    FromStats_StreamSize        : 115

    Menu
    00:00:00.000                : :Chapter 1
    00:10:55.071                : :Chapter 2
    00:19:16.989                : :Chapter 3
    00:29:27.849                : :Chapter 4
    00:40:53.159                : :Chapter 5
    00:50:23.771                : :Chapter 6
    01:00:41.847                : :Chapter 7
    01:09:59.362                : :Chapter 8
    01:19:54.790                : :Chapter 9

  • Peso: 3.43 GB

Sinopsis

Max se asigna a la Casa Blanca, mientras Butch perro de servicio secreto, es de baja por maternidad. Se reunió con TJ, un niño de 12 años que es el hijo del presidente. Debido al alto perfil de su padre, tratando de encajar y llevar una vida normal. Durante una visita de Estado del presidente ruso y su hija, Alexandra (Alex), TJ se invitó a acompañarlo durante su estancia. TJ ha hecho amigo de Alex, pero cuando se meten en problemas, Max viene al rescate!

Ficha técnica

  • Titulo original: Max 2: White House Hero
  • Fecha de lanzamiento: 23-05-2017
  • Género: Drama
  • Puntuación: 5.0 1 votos
  • Duración:
    1h 25m

Video trailer de la película

Enlaces de descarga

Descargar Max 2: White House Hero (2017) 1080p Latino
Descargar
Descargar Max 2: White House Hero (2017) 1080p Latino

dpeliculas

Aportes de DPeliculasHDmega la pass es:dpeliculashdmega.org Aportes de CinemaniaHD la pass es:cinemaniahdd.com
Guardado en : Drama

Películas relacionadas

  • Your name (2016) Full 1080p Latino

    2016
    Your name (2016) Full 1080p Latino

    5.0 1 h 46 min 2016

    La película nos presenta a dos jóvenes, Mitsuha y Taki. La primera es una estudiante de instituto que...

    Director: Makoto Shinkai

    Género: Animación

    Actores: Tani Kanon

  • Atrápame si puedes (2002) Full 1080p Latino

    2002
    Atrápame si puedes (2002) Full 1080p Latino

    0.0 2h 20m 2002

    Frank Abagnale Jr. trabajó como médico, abogado y copiloto de una de las grandes líneas aéreas, todo...

    Director: Steven Spielberg

    Género: Crimen

    Actores: William Lauzon

  • Mi Nueva Yo (2017) WEBDL 1080p Latino

    2017
    Mi Nueva Yo (2017) WEBDL 1080p Latino

    0.0 1 h 37 min 2017

    Una madre de dos hijos se acaba de separar y decide iniciar una nueva vida en Los Ángeles. Los acontecimientos...

    Director: Hallie Meyers-Shyer

    Género: Comedia

    Actores: Reid Scott

  • The Walking Dead (2017) Temporada 8 WEBDL 1080p Latino

    2017
    The Walking Dead (2017) Temporada 8 WEBDL 1080p Latino

    5.0 0h 42m 2017

    Rick, Maggie y Ezekiel reúnen a sus comunidades para derrotar a Negan y los salvadores. Gregory intenta...

    Director: Frank Darabont

    Género: Action & Adventure

    Actores: Norman Reedus

Comentarios 2
  • Jotape - 11 mayo, 2017

    Estimado, solo aparecen 3 links con una suma de 2.58 gb ?

    • dpelis

      Administrador
      - 11 mayo, 2017

      si es correcto.son de 990 cada link.