Match Point (2005) Full 1080p Latino

1.277 vistas
1 estrella2 estrellas3 estrellas4 estrellas5 estrellas (Ninguna valoración todavía)
Cargando…

Información de Match Point (2005) Full 1080p Latino

match point 1080 latino

Datos de la película

  • Calidad: Full 1080p
  • Audio: Español Latino AC3 2.0 DVD - Ingles AC3 5.1 BLURAY
  • Subtitulos: Español Latino SRT - Ingles SRT
  • Resolución: 1920x1080p
  • Formato: MKV
  • Codec: H.264
  • Encoder: Dpelis
  • Mediainfo: Ver Ver
  • Match Point 2005 HD FULL 1080p Latino.mkv
    Format                      : Matroska
    Format version              : Version 4 / Version 2
    File size                   : 9.16 GiB
    Duration                    : 2 h 4 min
    Overall bit rate            : 10.6 Mb/s
    Movie name                  : DPeliculasHDMega.ORG
    Encoded date                : UTC 2017-04-15 22:29:55
    Writing application         : mkvmerge v10.0.0 ('To Drown In You') 64bit
    Writing library             : libebml v1.3.4 + libmatroska v1.4.5

    Video
    ID                          : 1
    Format                      : AVC
    Format/Info                 : Advanced Video Codec
    Format profile              : [email protected]
    Format settings, CABAC      : Yes
    Format settings, ReFrames   : 4 frames
    Codec ID                    : V_MPEG4/ISO/AVC
    Duration                    : 2 h 4 min
    Bit rate                    : 8 289 kb/s
    Width                       : 1 920 pixels
    Height                      : 1 080 pixels
    Display aspect ratio        : 16:9
    Frame rate mode             : Constant
    Frame rate                  : 23.976 (24000/1001) FPS
    Color space                 : YUV
    Chroma subsampling          : 4:2:0
    Bit depth                   : 8 bits
    Scan type                   : Progressive
    Bits/(Pixel*Frame)          : 0.167
    Stream size                 : 7.18 GiB (78%)
    Writing library             : x264 core 148 r2708 86b7198
    Encoding settings           : cabac=1 / ref=4 / deblock=1:0:0 / analyse=0x3:0x133 / me=esa / subme=10 / psy=1 / psy_rd=1.00:0.00 / mixed_ref=1 / me_range=24 / chroma_me=1 / trellis=2 / 8x8dct=1 / cqm=0 / deadzone=21,11 / fast_pskip=1 / chroma_qp_offset=-2 / threads=12 / lookahead_threads=2 / sliced_threads=0 / nr=0 / decimate=1 / interlaced=0 / bluray_compat=0 / constrained_intra=0 / bframes=8 / b_pyramid=2 / b_adapt=2 / b_bias=0 / direct=3 / weightb=1 / open_gop=0 / weightp=2 / keyint=240 / keyint_min=24 / scenecut=40 / intra_refresh=0 / rc_lookahead=60 / rc=crf / mbtree=1 / crf=20.0 / qcomp=0.60 / qpmin=0 / qpmax=69 / qpstep=4 / vbv_maxrate=62500 / vbv_bufsize=78125 / crf_max=0.0 / nal_hrd=none / filler=0 / ip_ratio=1.40 / aq=1:1.00
    Default                     : Yes
    Forced                      : No
    Color range                 : Limited
    Color primaries             : BT.709
    Transfer characteristics    : BT.709
    Matrix coefficients         : BT.709

    Audio #1
    ID                          : 2
    Format                      : AC-3
    Format/Info                 : Audio Coding 3
    Format settings, Endianness : Big
    Codec ID                    : A_AC3
    Duration                    : 2 h 4 min
    Bit rate mode               : Constant
    Bit rate                    : 192 kb/s
    Channel(s)                  : 2 channels
    Channel positions           : Front: L R
    Sampling rate               : 44.1 kHz
    Frame rate                  : 28.711 FPS (1536 spf)
    Bit depth                   : 16 bits
    Compression mode            : Lossy
    Delay relative to video     : 1 ms
    Stream size                 : 170 MiB (2%)
    Language                    : Spanish
    Service kind                : Complete Main
    Default                     : Yes
    Forced                      : No

    Audio #2
    ID                          : 3
    Format                      : DTS
    Format/Info                 : Digital Theater Systems
    Format profile              : MA / Core
    Mode                        : 16
    Format settings, Endianness : Big
    Codec ID                    : A_DTS
    Duration                    : 2 h 4 min
    Bit rate mode               : Variable / Constant
    Bit rate                    : 2 048 kb/s / 1 509 kb/s
    Channel(s)                  : 2 channels
    Channel positions           : Front: L R
    Sampling rate               : 48.0 kHz
    Frame rate                  : 93.750 FPS (512 spf)
    Bit depth                   : 24 bits
    Compression mode            : Lossless / Lossy
    Stream size                 : 1.79 GiB (20%)
    Language                    : English
    Default                     : No
    Forced                      : No

    Text #1
    ID                          : 4
    Format                      : UTF-8
    Codec ID                    : S_TEXT/UTF8
    Codec ID/Info               : UTF-8 Plain Text
    Duration                    : 2 h 0 min
    Bit rate                    : 76 b/s
    Count of elements           : 1862
    Stream size                 : 67.3 KiB (0%)
    Language                    : Spanish
    Default                     : No
    Forced                      : No

    Text #2
    ID                          : 5
    Format                      : PGS
    Muxing mode                 : zlib
    Codec ID                    : S_HDMV/PGS
    Codec ID/Info               : Picture based subtitle format used on BDs/HD-DVDs
    Duration                    : 2 h 0 min
    Bit rate                    : 23.9 kb/s
    Count of elements           : 2778
    Stream size                 : 20.6 MiB (0%)
    Language                    : English
    Default                     : No
    Forced                      : No

    Text #3
    ID                          : 6
    Format                      : UTF-8
    Codec ID                    : S_TEXT/UTF8
    Codec ID/Info               : UTF-8 Plain Text
    Duration                    : 10 s 100 ms
    Bit rate                    : 91 b/s
    Count of elements           : 1
    Stream size                 : 115 Bytes (0%)
    Language                    : Spanish
    Default                     : Yes
    Forced                      : No

  • Peso: 9.16 GB

Sinopsis

Match Point 1080p Latino, también conocida en español como La provocación , es una película escrita y dirigida por Woody Allen, la primera de las tres que el cineasta realizó en Gran Bretaña. Está interpretada por Jonathan Rhys Meyers, Scarlett Johansson, Emily Mortimer, Matthew Goode, Brian Cox y Penelope Wilton. Se estrenó el 12 de mayo de 2005 en el Festival de Cannes, fuera de concurso.

 

Chris Wilton es un ambicioso instructor de tenis joven con recursos financieros limitados. Gracias a su amistad con Tom Hewett, entrar en la sociedad de Londres y el amor de su hermana Chloe. Tom, sin embargo, tiene Nola Rice, de Estados Unidos lindo, Chris se convierte en sierra encaprichado. Por casualidad, la pasión y, sobre todo, la ambición de tomar Chris todos los actos que determinan cada vez más sus vidas y la de los demás.

Ficha técnica

Imágenes, Capturas de la película

Video trailer de la película

Enlaces de descarga

Descargar Match Point (2005) Full 1080p Latino
Descargar
Descargar

dpeliculas

Aportes de DPeliculasHDmega la pass es:dpeliculashdmega.org Aportes de CinemaniaHD la pass es:cinemaniahdd.com

PelícuDelas relacionadas

  • Inferno (2016) 2160p 4K UHD Latino

    2016
    Inferno (2016) 2160p 4K UHD Latino

    0.0 2h 1m 2016

    Descargar gratis Inferno (2016) 2160p 4K UHD Latino Mega. Robert Langdon se despierta en una habitación...

    Director: Ron Howard

    Género: 4K HDR

    Actores: Vincenzo Tanassi

  • Nightmare on Elm street 7 (1994) Full Latino

    1994
    Nightmare on Elm street 7 (1994) Full Latino

    0.0 0h 0m 1994

    Descargar gratis Nightmare on Elm street 7 (1994) Full Latino Mega. La actriz que protagonizó la primera...

    Director: Wes Craven

    Género: Fantasía

    Actores: Yonda Davis

  • Nightmare on Elm street 6 (1991) Full Latino

    1991
    Nightmare on Elm street 6 (1991) Full Latino

    0.0 0h 0m 1991

    Descargar gratis Nightmare on Elm street 6 (1991) Full Latino Mega. Después de diez años, Freddy Krueger...

    Director: Rachel Talalay

    Género: Comedia

    Actores: Yaphet Kotto

  • Nightmare on Elm Street 5 (1989) Full Latino

    1989
    Nightmare on Elm Street 5 (1989) Full Latino

    0.0 0h 0m 1989

    Descargar gratis Nightmare on Elm Street 5 (1989) Full Latino Mega. Alice y Dan viven felices tras haber...

    Director: Stephen Hopkins

    Género: Sagas

    Actores: Will Egan

  • Nightmare on Elm Street 4 (1988) Full Latino

    1988
    Nightmare on Elm Street 4 (1988) Full Latino

    0.0 0h 0m 1988

    Desargar gratis Nightmare on Elm Street 4 (1988) Full Latino Mega. Freddy Krueger vuelve a la vida después...

    Director: Renny Harlin

    Género: Sagas

    Actores: Wanda Bursey

Comentarios 8
  • slash - 29 mayo, 2017

    ¡Por fin la termine de descargar! Gracias por traernos a Scarlett Johansson en HD, saludos.

  • Kevin - 29 mayo, 2017

    en el enlace publico me sale: Error El id “368” no existe

  • grace - 26 mayo, 2017

    Genial! tardare 10 años en descargarla, gracias d:

  • Chris - 17 abril, 2017

    La subirán en caratula negra..???

    • dpelis - 17 abril, 2017

      la subire a mediados de semana o fin de la otra semana, Saludos

  • Carlos - 16 abril, 2017

    Match point es del 2005 tienen un pequeño error

    • dpelis - 16 abril, 2017

      gracias , se me paso el dedo. Saludos