Marvel’s Agentes de S.H.I.E.L.D. (2015) Temporada 3 Full 1080p Latino

426 vistas
1 estrella2 estrellas3 estrellas4 estrellas5 estrellas (Ninguna valoración todavía)
Cargando…

Información de Marvel’s Agentes de S.H.I.E.L.D. (2015) Temporada 3 Full 1080p Latino

Datos de la película

  • Calidad: Full 1080p
  • Audio: Español Latino AC3 2.0 Netflix - Ingles DTS 5.1 BURAY
  • Subtitulos: Español Latino PGS - Ingles PGS
  • Resolución: 1920x1080p
  • Formato: MKV
  • Codec: H.264
  • Encoder: Dpelis
  • Mediainfo: Ver Ver
  • Marvels Agents Of Shield S03E01 Full 1080p Latino.mkv
    Format                      : Matroska
    Format version              : Version 4 / Version 2
    File size                   : 1.93 GiB
    Duration                    : 43 min 6 s
    Overall bit rate            : 6 417 kb/s
    Movie name                  : DPeliculasHDMega.ORG
    Encoded date                : UTC 2017-09-10 23:13:53 / UTC 2017-09-05T22:41:25Z
    Writing application         : mkvmerge v10.0.0 ('To Drown In You') 64bit
    Writing library             : libebml v1.3.4 + libmatroska v1.4.5 / Lavf57.7.2

    Video
    ID                          : 1
    Format                      : AVC
    Format/Info                 : Advanced Video Codec
    Format profile              : [email protected]
    Format settings, CABAC      : Yes
    Format settings, RefFrames  : 4 frames
    Codec ID                    : V_MPEG4/ISO/AVC
    Duration                    : 43 min 6 s
    Bit rate                    : 4 525 kb/s
    Width                       : 1 920 pixels
    Height                      : 1 080 pixels
    Display aspect ratio        : 16:9
    Frame rate mode             : Constant
    Frame rate                  : 23.976 (24000/1001) FPS
    Color space                 : YUV
    Chroma subsampling          : 4:2:0
    Bit depth                   : 8 bits
    Scan type                   : Progressive
    Bits/(Pixel*Frame)          : 0.091
    Stream size                 : 1.36 GiB (71%)
    Writing library             : x264 core 148 r2708 86b7198
    Encoding settings           : cabac=1 / ref=4 / deblock=1:0:0 / analyse=0x3:0x133 / me=esa / subme=9 / psy=1 / psy_rd=1.00:0.00 / mixed_ref=1 / me_range=16 / chroma_me=1 / trellis=2 / 8x8dct=1 / cqm=0 / deadzone=21,11 / fast_pskip=1 / chroma_qp_offset=-2 / threads=34 / lookahead_threads=2 / sliced_threads=0 / nr=0 / decimate=1 / interlaced=0 / bluray_compat=0 / constrained_intra=0 / bframes=3 / b_pyramid=2 / b_adapt=2 / b_bias=0 / direct=3 / weightb=1 / open_gop=0 / weightp=2 / keyint=240 / keyint_min=24 / scenecut=40 / intra_refresh=0 / rc_lookahead=60 / rc=crf / mbtree=1 / crf=21.0 / qcomp=0.60 / qpmin=0 / qpmax=69 / qpstep=4 / vbv_maxrate=62500 / vbv_bufsize=78125 / crf_max=0.0 / nal_hrd=none / filler=0 / ip_ratio=1.40 / aq=1:1.00
    Default                     : Yes
    Forced                      : No
    Color range                 : Limited
    Color primaries             : BT.709
    Transfer characteristics    : BT.709
    Matrix coefficients         : BT.709
    Statistics Tags Issue       : mkvmerge v10.0.0 ('To Drown In You') 64bit 2017-09-10 23:13:53 / mkvmerge v10.0.0 ('To Drown In You') 64bit 2017-09-10 23:13:53 / UTC 2017-09-05T22:41:25Z
    FromStats_BitRate           : 4608359
    FromStats_Duration          : 00:43:06.584000000
    FromStats_FrameCount        : 62016
    FromStats_StreamSize        : 1489988584

    Audio #1
    ID                          : 2
    Format                      : AC-3
    Format/Info                 : Audio Coding 3
    Format settings, Endianness : Big
    Codec ID                    : A_AC3
    Duration                    : 43 min 6 s
    Bit rate mode               : Constant
    Bit rate                    : 256 kb/s
    Channel(s)                  : 2 channels
    Channel positions           : Front: L R
    Sampling rate               : 48.0 kHz
    Frame rate                  : 31.250 FPS (1536 SPF)
    Bit depth                   : 16 bits
    Compression mode            : Lossy
    Stream size                 : 78.9 MiB (4%)
    Title                       : Stereo
    Language                    : Spanish
    Service kind                : Complete Main
    Default                     : Yes
    Forced                      : No
    Statistics Tags Issue       : mkvmerge v10.0.0 ('To Drown In You') 64bit 2017-09-10 23:13:53 / mkvmerge v10.0.0 ('To Drown In You') 64bit 2017-09-10 23:13:53 / UTC 2017-09-05T22:41:25Z
    FromStats_BitRate           : 256000
    FromStats_Duration          : 00:43:06.656000000
    FromStats_FrameCount        : 80833
    FromStats_StreamSize        : 82772992

    Audio #2
    ID                          : 3
    Format                      : DTS
    Format/Info                 : Digital Theater Systems
    Mode                        : 16
    Format settings, Endianness : Big
    Codec ID                    : A_DTS
    Duration                    : 43 min 6 s
    Bit rate mode               : Constant
    Bit rate                    : 1 509 kb/s
    Channel(s)                  : 6 channels
    Channel positions           : Front: L C R, Side: L R, LFE
    Sampling rate               : 48.0 kHz
    Frame rate                  : 93.750 FPS (512 SPF)
    Bit depth                   : 24 bits
    Compression mode            : Lossy
    Stream size                 : 465 MiB (24%)
    Title                       : Surround
    Language                    : English
    Default                     : No
    Forced                      : No
    Statistics Tags Issue       : mkvmerge v10.0.0 ('To Drown In You') 64bit 2017-09-10 23:13:53 / mkvmerge v10.0.0 ('To Drown In You') 64bit 2017-09-10 23:13:53 / UTC 2017-09-05T22:41:25Z
    FromStats_BitRate           : 1509000
    FromStats_Duration          : 00:43:06.624000000
    FromStats_FrameCount        : 242496
    FromStats_StreamSize        : 487901952

    Text #1
    ID                          : 4
    Format                      : PGS
    Muxing mode                 : zlib
    Codec ID                    : S_HDMV/PGS
    Codec ID/Info               : Picture based subtitle format used on BDs/HD-DVDs
    Language                    : Spanish
    Default                     : No
    Forced                      : No
    Statistics Tags Issue       : mkvmerge v10.0.0 ('To Drown In You') 64bit 2017-09-10 23:13:53 / mkvmerge v10.0.0 ('To Drown In You') 64bit 2017-09-10 23:13:53 / UTC 2017-09-05T22:41:25Z
    FromStats_BitRate           : 26207
    FromStats_Duration          : 00:40:36.937000000
    FromStats_FrameCount        : 1406
    FromStats_StreamSize        : 7983174

    Text #2
    ID                          : 5
    Format                      : PGS
    Muxing mode                 : zlib
    Codec ID                    : S_HDMV/PGS
    Codec ID/Info               : Picture based subtitle format used on BDs/HD-DVDs
    Language                    : English
    Default                     : No
    Forced                      : No
    Statistics Tags Issue       : mkvmerge v10.0.0 ('To Drown In You') 64bit 2017-09-10 23:13:53 / mkvmerge v10.0.0 ('To Drown In You') 64bit 2017-09-10 23:13:53 / UTC 2017-09-05T22:41:25Z
    FromStats_BitRate           : 17124
    FromStats_Duration          : 00:41:47.546000000
    FromStats_FrameCount        : 1542
    FromStats_StreamSize        : 5367561

    Menu
    00:00:00.000                : :Chapter 1
    00:08:31.052                : :Chapter 2
    00:17:21.707                : :Chapter 3
    00:30:26.199                : :Chapter 4
    00:41:33.324                : :Chapter 5
    00:42:26.419                : :Chapter 6

  • Peso: 2.4 GB Aprox C/U

Sinopsis

Marvel’s Agents of S.H.I.E.L.D.” regresa para una tercera temporada llena de acción con el Director Phil Coulson (Clark Gregg) y la Agente Daisy Johnson (Chloe Bennet) liderando la carga mientras S.H.I.E.L.D. busca en el mundo a más gente con poderes tras el desenlace de su batalla épica con Jiaying y su ejército de Inhumanos. No obstante, Coulson y su equipo pronto descubrirán que no son el único grupo buscando a estos nuevos Inhumanos.

Ficha técnica

  • Titulo original: Marvel's Agentes de S.H.I.E.L.D. Season 3
  • Fecha de lanzamiento: 29-09-2015 (United States of America)
  • Género: Acción, FULL 1080p Pesadas, Series
  • Puntuación: 0.0 0 votos
  • Duración:
    0h 43m

Imágenes, Capturas de la película

Video trailer de la película

Enlaces de descarga

Descargar Marvel’s Agentes de S.H.I.E.L.D. (2015) Temporada 3 Full 1080p Latino
Descargar

dpeliculas

Aportes de DPeliculasHDmega la pass es:dpeliculashdmega.org Aportes de CinemaniaHD la pass es:cinemaniahdd.com
Guardado en : Acción , FULL 1080p Pesadas , Series

PelícuDelas relacionadas

Comentarios 6
  • Angel - 16 septiembre, 2017

    ¡magnifico! disculpe una duda, el audio es de disney o de sony?

    • dpelis

      Administrador
      - 16 septiembre, 2017

      Disney

  • Jose - 15 septiembre, 2017

    Muchas Gracias por todos sus aportes son lo maximo… Y tambien queria saber si subiran las series Penny Dreadful y Dexter? Gracias.

    • dpelis

      Administrador
      - 15 septiembre, 2017

      se agregan la mayoria de serie, como sabran las series require gran trabajo. Lo mas trabajoso, editar los audios; lo cual se necesita dinero para pagar al editor, sin fondos no hay series

  • CARLOS - 13 septiembre, 2017

    AMIGO SACARAS LA SERIE BREAKING BAD

    • dpelis

      Administrador
      - 13 septiembre, 2017

      si estimado mas adelante