Marvel’s Agentes de S.H.I.E.L.D. (2014) Temporada 2 Full 1080p Latino

496 vistas
1 estrella2 estrellas3 estrellas4 estrellas5 estrellas (Ninguna valoración todavía)
Cargando…

Información de Marvel’s Agentes de S.H.I.E.L.D. (2014) Temporada 2 Full 1080p Latino

Datos de la película

  • Calidad: Full 1080p
  • Audio: Español Latino AC3 2.0 Netflix - Ingles DTS 5.1 BURAY
  • Subtitulos: Español Latino PGS - Ingles PGS
  • Resolución: 1920x1080p
  • Formato: MKV
  • Codec: H.264
  • Encoder: Dpelis
  • Mediainfo: Ver Ver
  • Marvels Agents Of Shield S201 Full 1080p Latino.mkv
    Format                      : Matroska
    Format version              : Version 4 / Version 2
    File size                   : 1.91 GiB
    Duration                    : 43 min 3 s
    Overall bit rate            : 6 348 kb/s
    Movie name                  : DPeliculasHDMega.ORG
    Encoded date                : UTC 2017-09-09 23:44:05 / UTC 2017-09-05T01:51:06Z
    Writing application         : mkvmerge v10.0.0 ('To Drown In You') 64bit
    Writing library             : libebml v1.3.4 + libmatroska v1.4.5 / Lavf57.7.2

    Video
    ID                          : 1
    Format                      : AVC
    Format/Info                 : Advanced Video Codec
    Format profile              : [email protected]
    Format settings, CABAC      : Yes
    Format settings, ReFrames   : 4 frames
    Codec ID                    : V_MPEG4/ISO/AVC
    Duration                    : 43 min 3 s
    Bit rate                    : 4 456 kb/s
    Width                       : 1 920 pixels
    Height                      : 1 080 pixels
    Display aspect ratio        : 16:9
    Frame rate mode             : Constant
    Frame rate                  : 23.976 (24000/1001) FPS
    Color space                 : YUV
    Chroma subsampling          : 4:2:0
    Bit depth                   : 8 bits
    Scan type                   : Progressive
    Bits/(Pixel*Frame)          : 0.090
    Stream size                 : 1.34 GiB (70%)
    Writing library             : x264 core 148 r2708 86b7198
    Encoding settings           : cabac=1 / ref=4 / deblock=1:0:0 / analyse=0x3:0x133 / me=esa / subme=9 / psy=1 / psy_rd=1.00:0.00 / mixed_ref=1 / me_range=16 / chroma_me=1 / trellis=2 / 8x8dct=1 / cqm=0 / deadzone=21,11 / fast_pskip=1 / chroma_qp_offset=-2 / threads=34 / lookahead_threads=2 / sliced_threads=0 / nr=0 / decimate=1 / interlaced=0 / bluray_compat=0 / constrained_intra=0 / bframes=3 / b_pyramid=2 / b_adapt=2 / b_bias=0 / direct=3 / weightb=1 / open_gop=0 / weightp=2 / keyint=240 / keyint_min=24 / scenecut=40 / intra_refresh=0 / rc_lookahead=60 / rc=crf / mbtree=1 / crf=21.0 / qcomp=0.60 / qpmin=0 / qpmax=69 / qpstep=4 / vbv_maxrate=62500 / vbv_bufsize=78125 / crf_max=0.0 / nal_hrd=none / filler=0 / ip_ratio=1.40 / aq=1:1.00
    Default                     : Yes
    Forced                      : No
    Color range                 : Limited
    Color primaries             : BT.709
    Transfer characteristics    : BT.709
    Matrix coefficients         : BT.709
    Statistics Tags Issue       : mkvmerge v10.0.0 ('To Drown In You') 64bit 2017-09-09 23:44:05 / mkvmerge v10.0.0 ('To Drown In You') 64bit 2017-09-09 23:44:05 / UTC 2017-09-05T01:51:06Z
    FromStats_BitRate           : 4537689
    FromStats_Duration          : 00:43:03.540000000
    FromStats_FrameCount        : 61943
    FromStats_StreamSize        : 1465412817

    Audio #1
    ID                          : 2
    Format                      : AC-3
    Format/Info                 : Audio Coding 3
    Format settings, Endianness : Big
    Codec ID                    : A_AC3
    Duration                    : 43 min 3 s
    Bit rate mode               : Constant
    Bit rate                    : 256 kb/s
    Channel(s)                  : 2 channels
    Channel positions           : Front: L R
    Sampling rate               : 48.0 kHz
    Frame rate                  : 31.250 FPS (1536 spf)
    Bit depth                   : 16 bits
    Compression mode            : Lossy
    Stream size                 : 78.8 MiB (4%)
    Title                       : Stereo
    Language                    : Spanish
    Service kind                : Complete Main
    Default                     : Yes
    Forced                      : No
    Statistics Tags Issue       : mkvmerge v10.0.0 ('To Drown In You') 64bit 2017-09-09 23:44:05 / mkvmerge v10.0.0 ('To Drown In You') 64bit 2017-09-09 23:44:05 / UTC 2017-09-05T01:51:06Z
    FromStats_BitRate           : 256000
    FromStats_Duration          : 00:43:03.584000000
    FromStats_FrameCount        : 80737
    FromStats_StreamSize        : 82674688

    Audio #2
    ID                          : 3
    Format                      : DTS
    Format/Info                 : Digital Theater Systems
    Mode                        : 16
    Format settings, Endianness : Big
    Codec ID                    : A_DTS
    Duration                    : 43 min 3 s
    Bit rate mode               : Constant
    Bit rate                    : 1 509 kb/s
    Channel(s)                  : 6 channels
    Channel positions           : Front: L C R, Side: L R, LFE
    Sampling rate               : 48.0 kHz
    Frame rate                  : 93.750 FPS (512 spf)
    Bit depth                   : 24 bits
    Compression mode            : Lossy
    Stream size                 : 465 MiB (24%)
    Title                       : Surround
    Language                    : English
    Default                     : No
    Forced                      : No
    Statistics Tags Issue       : mkvmerge v10.0.0 ('To Drown In You') 64bit 2017-09-09 23:44:05 / mkvmerge v10.0.0 ('To Drown In You') 64bit 2017-09-09 23:44:05 / UTC 2017-09-05T01:51:06Z
    FromStats_BitRate           : 1508999
    FromStats_Duration          : 00:43:03.574000000
    FromStats_FrameCount        : 242210
    FromStats_StreamSize        : 487326520

    Text #1
    ID                          : 4
    Format                      : PGS
    Muxing mode                 : zlib
    Codec ID                    : S_HDMV/PGS
    Codec ID/Info               : Picture based subtitle format used on BDs/HD-DVDs
    Language                    : Spanish
    Default                     : No
    Forced                      : No
    Statistics Tags Issue       : mkvmerge v10.0.0 ('To Drown In You') 64bit 2017-09-09 23:44:05 / mkvmerge v10.0.0 ('To Drown In You') 64bit 2017-09-09 23:44:05 / UTC 2017-09-05T01:51:06Z
    FromStats_BitRate           : 25342
    FromStats_Duration          : 00:42:14.159000000
    FromStats_FrameCount        : 1292
    FromStats_StreamSize        : 8027841

    Text #2
    ID                          : 5
    Format                      : PGS
    Muxing mode                 : zlib
    Codec ID                    : S_HDMV/PGS
    Codec ID/Info               : Picture based subtitle format used on BDs/HD-DVDs
    Language                    : English
    Default                     : No
    Forced                      : No
    Statistics Tags Issue       : mkvmerge v10.0.0 ('To Drown In You') 64bit 2017-09-09 23:44:05 / mkvmerge v10.0.0 ('To Drown In You') 64bit 2017-09-09 23:44:05 / UTC 2017-09-05T01:51:06Z
    FromStats_BitRate           : 17612
    FromStats_Duration          : 00:42:20.246000000
    FromStats_FrameCount        : 1580
    FromStats_StreamSize        : 5592434

    Menu
    00:00:00.000                : :Chapter 1
    00:12:05.058                : :Chapter 2
    00:18:52.673                : :Chapter 3
    00:25:27.651                : :Chapter 4
    00:36:08.375                : :Chapter 5
    00:42:23.291                : :Chapter 6

  • Peso: 2.4 GB Aprox C/U

Sinopsis

Agents of S.H.I.E.L.D. regresa para una segunda temporada dinámica y llena de acción, con el recientemente nombrado Director Coulson (Clark Gregg), ahora guardián de los secretos, responsable de la reconstrucción y restauración de la confianza del gobierno y la opinión pública en S.H.I.E.L.D. tras los eventos de Capitán América: El Soldado de Invierno, donde se reveló que los malvados agentes de Hydra se han infiltrado en la organización. Desde que la existencia de superhéroes y alienígenas se convirtió en algo de dominio público después de la batalla de Nueva York, el mundo ha estado intentando entender la nueva realidad. El Agente Phil Coulson, que había muerto a manos de Loki durante la batalla, fue resucitado y regresó a la acción, reuniendo un grupo pequeño pero muy selecto de Agentes de la organización mundial para el cumplimiento de la ley conocida como S.H.I.E.L.D. (Strategic Homeland Intervention Enforcement and Logistics Division). La misión de S.H.I.E.L.D.: proteger a aquellos que no se pueden proteger a sí mismos de las amenazas que no pueden concebir.

Ficha técnica

Imágenes, Capturas de la película

Video trailer de la película

Enlaces de descarga

Descargar Marvel’s Agentes de S.H.I.E.L.D. (2014) Temporada 2 Full 1080p Latino
Descargar

dpeliculas

Aportes de DPeliculasHDmega la pass es:dpeliculashdmega.org Aportes de CinemaniaHD la pass es:cinemaniahdd.com
Guardado en : Acción , FULL 1080p Pesadas , Series

PelícuDelas relacionadas

Comentarios 3
  • riky07 - 11 septiembre, 2017

    podrian subirla a uptobox o uploaded

    • dpelis

      Administrador
      - 13 septiembre, 2017

      lo siento

  • #Cinefilo - 10 septiembre, 2017

    Gracias por compartirla, ya la estaba esperando, Muchas Gracias, esperando la 3 y 4!! Excelente Aporte