Marvel’s Agentes de S.H.I.E.L.D. (2013) Temporada 1 Full 1080p Latino

847 vistas
1 estrella2 estrellas3 estrellas4 estrellas5 estrellas (Ninguna valoración todavía)
Cargando…

Información de Marvel’s Agentes de S.H.I.E.L.D. (2013) Temporada 1 Full 1080p Latino

Datos de la película

  • Calidad: Full 1080p
  • Audio: Español Latino AC3 2.0 Netflix - Ingles DTS 5.1 BURAY
  • Subtitulos: Español Latino PGS - Ingles PGS
  • Resolución: 1920x1080p
  • Formato: MKV
  • Codec: H.264
  • Encoder: Dpelis
  • Mediainfo: Ver Ver
  • Agents Of S.h.i.e.l.d S01E01 Full 1080p Latino.mkv
    Format                      : Matroska
    Format version              : Version 4 / Version 2
    File size                   : 2.00 GiB
    Duration                    : 44 min 18 s
    Overall bit rate            : 6 474 kb/s
    Movie name                  : DPeliculasHDMega.ORG
    Encoded date                : UTC 2017-08-14 22:14:03 / UTC 2017-07-28T12:48:36Z
    Writing application         : mkvmerge v10.0.0 ('To Drown In You') 64bit
    Writing library             : libebml v1.3.4 + libmatroska v1.4.5 / Lavf57.7.2
    Attachments                 : 1.jpg

    Video
    ID                          : 1
    Format                      : AVC
    Format/Info                 : Advanced Video Codec
    Format profile              : [email protected]
    Format settings, CABAC      : Yes
    Format settings, ReFrames   : 4 frames
    Codec ID                    : V_MPEG4/ISO/AVC
    Duration                    : 44 min 18 s
    Bit rate                    : 4 644 kb/s
    Width                       : 1 920 pixels
    Height                      : 1 080 pixels
    Display aspect ratio        : 16:9
    Frame rate mode             : Constant
    Frame rate                  : 23.976 (24000/1001) FPS
    Color space                 : YUV
    Chroma subsampling          : 4:2:0
    Bit depth                   : 8 bits
    Scan type                   : Progressive
    Bits/(Pixel*Frame)          : 0.093
    Stream size                 : 1.44 GiB (72%)
    Writing library             : x264 core 148 r2708 86b7198
    Encoding settings           : cabac=1 / ref=4 / deblock=1:0:0 / analyse=0x1:0x131 / me=esa / subme=9 / psy=1 / psy_rd=1.00:0.00 / mixed_ref=1 / me_range=16 / chroma_me=1 / trellis=2 / 8x8dct=0 / cqm=0 / deadzone=21,11 / fast_pskip=1 / chroma_qp_offset=-2 / threads=34 / lookahead_threads=2 / sliced_threads=0 / nr=0 / decimate=1 / interlaced=0 / bluray_compat=0 / constrained_intra=0 / bframes=3 / b_pyramid=2 / b_adapt=2 / b_bias=0 / direct=3 / weightb=1 / open_gop=0 / weightp=2 / keyint=240 / keyint_min=24 / scenecut=40 / intra_refresh=0 / rc_lookahead=60 / rc=crf / mbtree=1 / crf=21.0 / qcomp=0.60 / qpmin=0 / qpmax=69 / qpstep=4 / vbv_maxrate=50000 / vbv_bufsize=62500 / crf_max=0.0 / nal_hrd=none / filler=0 / ip_ratio=1.40 / aq=1:1.00
    Default                     : Yes
    Forced                      : No
    Color range                 : Limited
    Color primaries             : BT.709
    Transfer characteristics    : BT.709
    Matrix coefficients         : BT.709
    Statistics Tags Issue       : mkvmerge v10.0.0 ('To Drown In You') 64bit 2017-08-14 22:14:03 / mkvmerge v10.0.0 ('To Drown In You') 64bit 2017-08-14 22:14:03 / UTC 2017-07-28T12:48:36Z
    FromStats_BitRate           : 4769802
    FromStats_Duration          : 00:44:05.518000000
    FromStats_FrameCount        : 63429
    FromStats_StreamSize        : 1577324837

    Audio #1
    ID                          : 2
    Format                      : AC-3
    Format/Info                 : Audio Coding 3
    Format settings, Endianness : Big
    Codec ID                    : A_AC3
    Duration                    : 44 min 18 s
    Bit rate mode               : Constant
    Bit rate                    : 192 kb/s
    Channel(s)                  : 2 channels
    Channel positions           : Front: L R
    Sampling rate               : 48.0 kHz
    Frame rate                  : 31.250 FPS (1536 spf)
    Bit depth                   : 16 bits
    Compression mode            : Lossy
    Stream size                 : 60.8 MiB (3%)
    Language                    : Spanish
    Service kind                : Complete Main
    Default                     : Yes
    Forced                      : No
    Statistics Tags Issue       : mkvmerge v10.0.0 ('To Drown In You') 64bit 2017-08-14 22:14:03 / mkvmerge v10.0.0 ('To Drown In You') 64bit 2017-08-14 22:14:03 / UTC 2017-07-28T12:48:36Z
    FromStats_BitRate           : 192000
    FromStats_Duration          : 00:44:18.112000000
    FromStats_FrameCount        : 83066
    FromStats_StreamSize        : 63794688

    Audio #2
    ID                          : 3
    Format                      : DTS
    Format/Info                 : Digital Theater Systems
    Mode                        : 16
    Format settings, Endianness : Big
    Codec ID                    : A_DTS
    Duration                    : 44 min 18 s
    Bit rate mode               : Constant
    Bit rate                    : 1 509 kb/s
    Channel(s)                  : 6 channels
    Channel positions           : Front: L C R, Side: L R, LFE
    Sampling rate               : 48.0 kHz
    Frame rate                  : 93.750 FPS (512 spf)
    Bit depth                   : 24 bits
    Compression mode            : Lossy
    Stream size                 : 478 MiB (23%)
    Title                       : Surround
    Language                    : English
    Default                     : No
    Forced                      : No
    Statistics Tags Issue       : mkvmerge v10.0.0 ('To Drown In You') 64bit 2017-08-14 22:14:03 / mkvmerge v10.0.0 ('To Drown In You') 64bit 2017-08-14 22:14:03 / UTC 2017-07-28T12:48:36Z
    FromStats_BitRate           : 1508999
    FromStats_Duration          : 00:44:05.558000000
    FromStats_FrameCount        : 248021
    FromStats_StreamSize        : 499018252

    Text #1
    ID                          : 4
    Format                      : PGS
    Muxing mode                 : zlib
    Codec ID                    : S_HDMV/PGS
    Codec ID/Info               : Picture based subtitle format used on BDs/HD-DVDs
    Language                    : Spanish
    Default                     : No
    Forced                      : No
    Statistics Tags Issue       : mkvmerge v10.0.0 ('To Drown In You') 64bit 2017-08-14 22:14:03 / mkvmerge v10.0.0 ('To Drown In You') 64bit 2017-08-14 22:14:03 / UTC 2017-07-28T12:48:36Z
    FromStats_BitRate           : 14865
    FromStats_Duration          : 00:43:05.375000000
    FromStats_FrameCount        : 1480
    FromStats_StreamSize        : 4804257

    Text #2
    ID                          : 5
    Format                      : PGS
    Muxing mode                 : zlib
    Codec ID                    : S_HDMV/PGS
    Codec ID/Info               : Picture based subtitle format used on BDs/HD-DVDs
    Language                    : English
    Default                     : No
    Forced                      : No
    Statistics Tags Issue       : mkvmerge v10.0.0 ('To Drown In You') 64bit 2017-08-14 22:14:03 / mkvmerge v10.0.0 ('To Drown In You') 64bit 2017-08-14 22:14:03 / UTC 2017-07-28T12:48:36Z
    FromStats_BitRate           : 15611
    FromStats_Duration          : 00:43:05.375000000
    FromStats_FrameCount        : 1466
    FromStats_StreamSize        : 5045066

    Menu
    00:00:00.000                : :Chapter 1
    00:11:01.035                : :Chapter 2
    00:18:19.640                : :Chapter 3
    00:26:41.433                : :Chapter 4
    00:32:53.513                : :Chapter 5
    00:43:24.102                : :Chapter 6

  • Peso: 2/2 GB C/U

Sinopsis

Tras el ataque de los Chitauri a la Tierra, el resucitado agente Phil Coulson forma un equipo de fuerzas especiales del Sistema Homologado de Inteligencia, Espionaje, Logística y Defensa, mejor conocido como S.H.I.E.L.D., para lidiar con diversas situaciones en un mundo poblado de superhéroes, alienígenas e historias inusuales.1 3 Establecen su base de operaciones en un avión llamado el «Bus» y comienzan siguiendo el rastro de Mike Peterson, un hombre que consiguió escapar de la explosión de un edificio, y del grupo de hackers activistas «Rising Tide», que han logrado acceder a información confidencial

 

Ficha técnica

Imágenes, Capturas de la película

Video trailer de la película

Enlaces de descarga

Descargar Marvel’s Agentes de S.H.I.E.L.D. (2013) Temporada 1 Full 1080p Latino
Descargar

dpeliculas

Aportes de DPeliculasHDmega la pass es:dpeliculashdmega.org Aportes de CinemaniaHD la pass es:cinemaniahdd.com

PelícuDelas relacionadas

  • Poesía sin fin (2016) Full Latino

    2016
    Poesía sin fin (2016) Full Latino

    0.0 0h 0m 2016

    Descargar gratis Poesía sin fin (2016) Full Latino. A traves de la lente autobiográfica de Alejandro...

    Director: Alejandro Jodorowsky

    Género: Drama

    Actores: Pamela Flores

  • El fugitivo (1993) Full 1080p Latino

    1993
    El fugitivo (1993) Full 1080p Latino

    5.0 2h 13m 1993

    El doctor Richard Kimble es un prestigioso cirujano de Chicago con una vida prácticamente perfecta:...

    Director: Andrew Davis

    Género: Acción

    Actores: Turk Muller

  • Dragon Ball Super (2015) Full 1080p Latino

    2015
    Dragon Ball Super (2015) Full 1080p Latino

    4.1 0h 24m 2015

    Si eres un seguidor de la serie Dragon ball super latino, entonces ahora puedes disfrutar de esta maravillosa...

    Director: Akira Toriyama

    Género: Anime

    Actores: Naoki Tatsuta

  • El último virrey de la India (2017) 1080p Latino

    2017
    El último virrey de la India (2017) 1080p Latino

    0.0 1h 47m 2017

    En 1947, Lord Mountbatten (Hugh Bonneville), el bisnieto de la reina Victoria, asume su posición como...

    Director: San Davey

    Género: Drama

    Actores: Trishaan

Comentarios 14
  • Alejandro - 14 septiembre, 2017

    hola… como van las cosas gente … me podrian ayudar con este problema ,
    https://mega.nz/N!07YV0BoQ!e5Fetz3t22cz5GkXPftEphN7xg6mTIBZlYHWxZ9ZA5o=###n=F6ARWbKJ

  • slash - 13 septiembre, 2017

    Muchas gracias, ya me baje esta temporada y voy por la segunda, saludos cine y dpelis1.

    • dpelis

      Administrador
      - 13 septiembre, 2017

      manana la 3

  • luis - 13 septiembre, 2017

    amigo falta varias partes desde el capitulo 5 estan IMPAR las partes

    • dpelis

      Administrador
      - 13 septiembre, 2017

      digame servidor para revisar

      • luis - 13 septiembre, 2017

        google drive

        • seria - 13 septiembre, 2017

          el capitulo 5 solo es un link,

  • Claudio - 29 agosto, 2017

    Muchas gracias, por esta calidad. EL doblaje denetflix es genial, solo porque la voz de Coulson es la misma que en las peliculas, pero en el doblaje de Sony las voces de otros actores de cine, como Nick Fury, Maria Hill, Lady Sif… son las mismas que las peliculas… entonces… es posible que tambien la puedan subir con el doblaje de Sony? o ambos doblajes? Muchas gracias de todas formas, y ansioso espero las otras temporadas.

    PD: En espera de un proyecto a si de series como Smallville y Doctor Who 🙂

  • #Cinefilo - 25 agosto, 2017

    Muchas gracias por este aporte, espero suban las otras temporadas, el audio esta excelente , muchas gracias por el aporte…

  • jdbriceno - 25 agosto, 2017

    que bueno que la suban, espero las otras tambien…

  • Pansh - 25 agosto, 2017

    Gracias por esta Serie!!!!! espero suban todas las temporadas! excelente trabajo amigos!

  • Jonna - 25 agosto, 2017

    Vaya! He querido ver esta serie. Solo tengo 2 preguntas:
    -Se podrán conseguir subs SRT ? ya que no puedo probar a menos q la baje de golpe.
    -Subirán la temp 2, 3 y 4?
    Muchas gracias por su esfuerzo y dedicación a esta pag 🙂

    • dpelis

      Administrador
      - 28 agosto, 2017

      se agrego capitulos separados, al agregar enlaces al gestor apararecen enumeramos, no busque en subdix, puede buscar ahi ha de haber. se agregaran todas.